Loading...
Error

Скачать Партнеры по постели / Делай все вместе с нами / Mache alles mit (Курт Нахманн) [1971, драма, комедия, DVDRip] [VO] торрент без регистрации

 
Статистика раздачи
Размер:  1,37 GB   |    Скачан:  111 раз
Сидов:  1  [  0 KB/s  ]  
 
Автор Сообщение

Marsianka

[] 

Партнеры по постели / Делай все вместе с нами / Mache alles mit
Страна: Германия (ФРГ)
Жанр: драма, комедия
Год выпуска: 1971
Продолжительность: 01:22:28
Перевод: Одноголосый закадровый
Cубтитры: нет
Режиссер: Курт Нахманн / Kurt Nachmann
В ролях: Мэрион Форстер, Астрид Бонер, Гарри Каленберг, Олливер Домник, Имка Эберле, Елизабет Фельхнер, Леопольд Гмеинвиссер, Карин Готц, Вольфганг Хеллмунд
Описание: Молодая, 17-летняя девушка Дагги пытается в тайне от родителей удовлетворить свои сексуальные проснувшиеся потребности и посещает странные квартиры по объявлению в газетах. В одной из них, куда ее пригласила замужняя пара, она участвовала в групповых сексуальных оргиях и тут нагрянула полиция. Убегая о полиции, она отправляется в деревню к тёте, где находит свою настоящую любовь с деревенским парнем. Тем временем родители предпринимают попытки разыскать её, для того, что бы отправить в исправительную колонию...



Качество видео: DVDRip
Формат видео: AVI
Видео: DivX, 720x464 (16:10), 25 fps, 2177 kbps
Аудио: AC3, 48000Hz, 2 ch, 192kbpsMediaInfo

Сэмпл
Общее
Полное имя : D:\Mache.alles.mit_1971.avi
Формат : AVI
Формат/Информация : Audio Video Interleave
Размер файла : 1,37 Гбайт
Продолжительность : 1 ч. 22 м.
Общий поток : 2379 Кбит/сек
Программа кодирования : VirtualDubMod 1.5.10.3 | www.virtualdub-fr.org || (build 2550/release)
Библиотека кодирования : VirtualDubMod build 2550/release
Видео
Идентификатор : 0
Формат : MPEG-4 Visual
Профиль формата : Advanced Simple@L5
Параметр BVOP формата : 1
Параметр QPel формата : Нет
Параметр GMC формата : Без точки перехода
Параметр матрицы формата : Default (MPEG)
Идентификатор кодека : DX50
Идентификатор кодека/Подсказка : DivX 5
Продолжительность : 1 ч. 22 м.
Битрейт : 2177 Кбит/сек
Ширина : 720 пикселей
Высота : 464 пикселя
Соотношение сторон : 16:10
Частота кадров : 25,000 кадров/сек
Цветовое пространство : YUV
Субдискретизация насыщенности : 4:2:0
Битовая глубина : 8 бит
Тип развёртки : Прогрессивная
Метод сжатия : С потерями
Бит/(Пиксели*Кадры) : 0.261
Размер потока : 1,25 Гбайт (92%)
Библиотека кодирования : XviD 1.2.1 (UTC 2008-12-04)
Аудио
Идентификатор : 1
Формат : AC-3
Формат/Информация : Audio Coding 3
Расширение режима : CM (complete main)
Параметр Endianness формата : Big
Идентификатор кодека : 2000
Продолжительность : 1 ч. 22 м.
Вид битрейта : Постоянный
Битрейт : 192 Кбит/сек
Каналы : 2 канала
Расположение каналов : Front: L R
Частота : 48,0 КГц
Битовая глубина : 16 бит
Метод сжатия : С потерями
Задержка видео : 20 мс.
Размер потока : 113 Мбайт (8%)
Выравнивание : Разделение по промежуткам
Продолжительность промежутка : 40 мс. (1,00 видеокадр)
Время предзагрузки промежутка : 500 мс.



Скачать Партнеры.по.постели.Делай.все.вместе.с.нами.Mache.alles.mit.(Курт.Нахманн).[1971.драма.комедия.DVDRip].[VO].torrent без регистрации
Золото ЗОЛОТАЯ РАЗДАЧА! СКАЧАННОЕ НЕ ЗАСЧИТЫВАЕТСЯ! Золото
Дата: Зарегистрирован   [ Тип: внутренний ] Как тут cкачать?
MAGNET ссылка
MAGNET ссылка


Скачать .torrent

14 KB

Статус: проверено DHT
Скачан: торрент - 111 раз, раздача полностью - 21 раз
Размер: 1,37 GB
Оценка:  - (Голосов: 0)
Поблагодарили: 1
Поделиться ссылкой на эту раздачу с друзьями:
В контактеFacebookОдноклассникиTwitterLivejournalМой МирLiveinternet
 

 
Показать сообщения:    


Вы не можете начинать темы
Вы не можете отвечать на сообщения
Вы не можете редактировать свои сообщения
Вы не можете удалять свои сообщения
Вы не можете голосовать в опросах
Вы не можете прикреплять файлы к сообщениям
Вы можете скачивать файлы