Loading...
Error

Скачать Бэби-бум / Бум вокруг младенца / Детский бум / Baby Boom (Чарльз Шайер) [1987, комедия, мелодрама, HDTVRip] [MVO]x2 торрент без регистрации

 
Статистика раздачи
Размер:  1,46 GB   |    Скачан:  107 раз
Сидов:  1  [  0 KB/s  ]  
 
Автор Сообщение

Marsianka

[] 

Бэби-бум / Бум вокруг младенца / Детский бум / Baby Boom
Страна: США
Жанр: Комедия, Мелодрама
Год выпуска: 1987
Продолжительность: 01:50:18
Перевод: Профессиональный (многоголосый закадровый) НТВ+
Перевод 2: Профессиональный (многоголосый закадровый) СТС/ТНТ/Домашний
Cубтитры: нет
Оригинальная аудиодорожка: нет
Режиссер: Чарльз Шайер / Charles Shyer
В ролях: Дайан Китон, Сэм Шепард, Гарольд Рэймис, Кристина Кеннеди, Мишель Кеннеди, Сэм Ванамейкер,
Джеймс Спейдер, Пэт Хингл, Бритт Лич, Линда Эллерби и др.
Описание: Легкая комедия, более похожая на добрую сказочку. Деловая женщина (Китон), безумно занятая на работе, вынуждена круто менять свою жизнь, когда у нее на руках появляется крохотный плачущий комочек в пеленках. Она мечется между младенцем, боссом и "другом семьи" и находит успокоение, только уехав за город, где встречает замечательного человека, местного ветеринара (Шепард). Сценаристы Шайер и Нэнси Мейерс. На основе фильма был запущен вскоре и телесериал. (М. Иванов)



Качество видео: HDTVRip
Формат видео: AVI
Видео: MPEG4, XviD, 720x400 (16/9), 23.976 fps, 1 491 Kbps (0.216 bit/pixel)
Аудио: AC-3, 48.0 KHz, 2 ch, 192 Kbps, CBR - НТВ+
Аудио 2: AC-3, 48.0 KHz, 2 ch, 192 Kbps, CBR - СТС/ТНТ/Домашний
Общее
Полное имя : K:\Детский бум.avi
Формат : AVI
Формат/Информация : Audio Video Interleave
Размер файла : 1,46 Гбайт
Продолжительность : 1 ч. 50 м.
Общий поток : 1890 Кбит/сек
Название фильма : Бэби-бум / Бум вокруг младенца / Детский бум / Baby Boom (1987)
Режиссёр : miha2154
Программа кодирования : VirtualDubMod 1.5.10.2 (build 2540/release)
Правообладатель : специально для BitTorrent трекер RuTracker.org (ex torrents.ru)
Видео
Идентификатор : 0
Формат : MPEG-4 Visual
Профиль формата : Advanced Simple@L5
Параметр BVOP формата : 2
Параметр QPel формата : Нет
Параметр GMC формата : Без точки перехода
Параметр матрицы формата : Default (MPEG)
Идентификатор кодека : XVID
Идентификатор кодека/Подсказка : XviD
Продолжительность : 1 ч. 50 м.
Битрейт : 1491 Кбит/сек
Ширина : 720 пикселей
Высота : 400 пикселей
Соотношение сторон : 16:9
Частота кадров : 23,976 кадра/сек
Цветовое пространство : YUV
Субдискретизация насыщенности : 4:2:0
Битовая глубина : 8 бит
Тип развёртки : Прогрессивная
Метод сжатия : С потерями
Бит/(Пиксели*Кадры) : 0.216
Размер потока : 1,15 Гбайт (79%)
Библиотека кодирования : XviD 1.1.0 (UTC 2005-11-22)
Аудио #1
Идентификатор : 1
Формат : AC-3
Формат/Информация : Audio Coding 3
Расширение режима : CM (complete main)
Параметр Endianness формата : Big
Идентификатор кодека : 2000
Продолжительность : 1 ч. 50 м.
Вид битрейта : Постоянный
Битрейт : 192 Кбит/сек
Каналы : 2 канала
Расположение каналов : Front: L R
Частота : 48,0 КГц
Битовая глубина : 16 бит
Метод сжатия : С потерями
Размер потока : 151 Мбайт (10%)
Выравнивание : Разделение по промежуткам
Продолжительность промежутка : 42 мс. (1,00 видеокадр)
Время предзагрузки промежутка : 500 мс.
Заголовок : Профессиональный (многоголосый закадровый) НТВ+
Аудио #2
Идентификатор : 2
Формат : AC-3
Формат/Информация : Audio Coding 3
Расширение режима : CM (complete main)
Параметр Endianness формата : Big
Идентификатор кодека : 2000
Продолжительность : 1 ч. 50 м.
Вид битрейта : Постоянный
Битрейт : 192 Кбит/сек
Каналы : 2 канала
Расположение каналов : Front: L R
Частота : 48,0 КГц
Битовая глубина : 16 бит
Метод сжатия : С потерями
Размер потока : 151 Мбайт (10%)
Выравнивание : Разделение по промежуткам
Продолжительность промежутка : 42 мс. (1,00 видеокадр)
Время предзагрузки промежутка : 500 мс.
Заголовок : Профессиональный (многоголосый закадровый) СТС/ТНТ/Домашний



Скачать Бэби-бум.Бум.вокруг.младенца.Детский.бум.Baby.Boom.(Чарльз.Шайер).[1987.комедия.мелодрама.HDTVRip].[MVO]x2.torrent без регистрации
Золото ЗОЛОТАЯ РАЗДАЧА! СКАЧАННОЕ НЕ ЗАСЧИТЫВАЕТСЯ! Золото
Дата: Зарегистрирован   [ Тип: внутренний ] Как тут cкачать?
MAGNET ссылка
MAGNET ссылка


Скачать .torrent

15 KB

Статус: проверено DHT
Скачан: торрент - 107 раз, раздача полностью - 0 раз
Размер: 1,46 GB
Оценка:  - (Голосов: 0)
Поблагодарили: 1
Поделиться ссылкой на эту раздачу с друзьями:
В контактеFacebookОдноклассникиTwitterLivejournalМой МирLiveinternet
 

 
Показать сообщения:    


Вы не можете начинать темы
Вы не можете отвечать на сообщения
Вы не можете редактировать свои сообщения
Вы не можете удалять свои сообщения
Вы не можете голосовать в опросах
Вы не можете прикреплять файлы к сообщениям
Вы можете скачивать файлы