Loading...
Error

Скачать Антинея, возлюбленная из погребенного города / Атлантида / Antinea, l'amante della citta sepolta / L'Atlantide (Эдгар Дж. Улмер) [1961, фэнтези, приключения, TVRip] [Sub (Rus) (Антон Каптелов)]+[Original (Fre)] торрент без регистрации

 
Статистика раздачи
Размер:  1,49 GB   |    Скачан:  104 раза

Полного источника не было: 27 минут

 
Автор Сообщение

Marsianka

[] 

Антинея, возлюбленная из погребенного города / Атлантида / Antinea, l'amante della citta sepolta / L'Atlantide
Страна: Италия, Франция
Жанр: фэнтези, приключения
Год выпуска: 1961
Продолжительность: 01:33:15
Перевод: Субтитры Антон Каптелов
Cубтитры: русские
Оригинальная аудиодорожка: французский
Режиссер: Эдгар Дж. Улмер / Edgar G. Ulmer
В ролях: Жан-Луи Трентиньян, Хайя Харарит, Жорж Ривьер, Джеймс Вэстмолэнд, Амедео Надзари, Джулия Рубини, Габриэле Тинти, Игнацио Дольче, Джан Мария Волонте
Описание: По мотивам романа Пьера Бенуа.
В африканской пустыне терпит крушение вертолет. Трое друзей, выживших после катастрофы, пытаются добраться до людей и попадают в таинственную и загадочную Атлантиду, погребенную в песках. Правит этой страной принцесса Антинея (Хайя Харарит).



Качество видео: TVRip
Формат видео: AVI
Видео: 688x304 (2.26:1), 25 fps, XviD build 47 ~1885 kbps avg, 0.36 bit/pixel

Сэмпл
Аудио 1: 44.1 kHz, AC3 Dolby Digital, 1/0 (C) ch, ~192 kbps английский
Аудио 2: 44.1 kHz, AC3 Dolby Digital, 1/0 (C) ch, ~192 kbps французский
Формат субтитров: softsub (SRT)
Format : AVI
Format/Info : Audio Video Interleave
File size : 1.49 GiB
Duration : 1h 33mn
Overall bit rate : 2 284 Kbps
Writing application : VirtualDubMod 1.5.10.2 (build 2540/release)
Writing library : VirtualDubMod build 2540/release
Video
ID : 0
Format : MPEG-4 Visual
Format profile : Advanced Simple@L5
Format settings, BVOP : 1
Format settings, QPel : No
Format settings, GMC : No warppoints
Format settings, Matrix : Default (MPEG)
Codec ID : XVID
Codec ID/Hint : XviD
Duration : 1h 33mn
Bit rate : 1 886 Kbps
Width : 688 pixels
Height : 304 pixels
Display aspect ratio : 2.25:1
Frame rate : 25.000 fps
Color space : YUV
Chroma subsampling : 4:2:0
Bit depth : 8 bits
Scan type : Progressive
Compression mode : Lossy
Bits/(Pixel*Frame) : 0.361
Stream size : 1.23 GiB (83%)
Writing library : XviD 1.2.0.dev47 (UTC 2006-11-01)
Audio #1
ID : 1
Format : AC-3
Format/Info : Audio Coding 3
Mode extension : CM (complete main)
Codec ID : 2000
Duration : 1h 33mn
Bit rate mode : Constant
Bit rate : 192 Kbps
Channel(s) : 1 channel
Channel positions : Front: C
Sampling rate : 44.1 KHz
Bit depth : 16 bits
Compression mode : Lossy
Stream size : 128 MiB (8%)
Alignment : Split accross interleaves
Interleave, duration : 40 ms (1.00 video frame)
Interleave, preload duration : 500 ms
Audio #2
ID : 2
Format : AC-3
Format/Info : Audio Coding 3
Mode extension : CM (complete main)
Codec ID : 2000
Duration : 1h 33mn
Bit rate mode : Constant
Bit rate : 192 Kbps
Channel(s) : 1 channel
Channel positions : Front: C
Sampling rate : 44.1 KHz
Bit depth : 16 bits
Compression mode : Lossy
Stream size : 128 MiB (8%)
Alignment : Split accross interleaves
Interleave, duration : 40 ms (1.00 video frame)
Interleave, preload duration : 500 ms
47
00:06:39,181 --> 00:06:41,548
Идем! Спрячемся внизу!
48
00:07:07,816 --> 00:07:09,431
Стоять! Назад!
49
00:07:18,411 --> 00:07:20,594
Я убью их всех!
50
00:07:21,688 --> 00:07:23,279
Валяй!
51
00:07:55,076 --> 00:07:57,736
- Поднимай выше!
- Не могу!
52
00:07:58,612 --> 00:08:00,345
Не поднимается.
53
00:08:09,495 --> 00:08:11,398
Пристегните ремни!
54
00:08:14,197 --> 00:08:16,447
Иду на посадку!
55
00:08:39,624 --> 00:08:41,666
Не вижу ничего на пять футов вперед.
56
00:08:56,157 --> 00:08:57,744
Будьте готовы на случай крушения!
57
00:09:26,974 --> 00:09:28,762
Рация вышла из строя!
58
00:09:54,427 --> 00:09:56,376
- Со всеми порядок?
- Вот только моя рука...
59
00:09:56,621 --> 00:09:58,119
Выводи его!
60
00:10:00,393 --> 00:10:02,030
Забери багаж!
61
00:10:06,169 --> 00:10:08,808
Оставайся здесь!
Мне нужно помочь Пьеру.
62
00:10:25,373 --> 00:10:27,310
Наплюй! Идем!
63
00:10:27,606 --> 00:10:29,076
Идем же!
64
00:10:36,536 --> 00:10:40,249
Мы вытащим тебя отсюда.
Найдем какое-нибудь укрытие.
65
00:10:40,924 --> 00:10:42,541
А как насчет вертолета?
66
00:10:42,681 --> 00:10:45,286
Извини, парень,
но он слишком близко от края скалы.
67
00:10:45,435 --> 00:10:47,557
Ветер может сорвать его в любую минуту.
68
00:10:52,889 --> 00:10:54,999
Держись крепче! Идем!
Огромное спасибо Антону Каптелову за перевод!



Скачать Антинея.возлюбленная.из.погребенного.города.Атлантида.Antinea.l'amante.della.citta.sepolta.L'Atlantide.(Эдгар.Дж.Улмер).[1961.фэнтези.приключения.TVRip].[Sub.(Rus).(Антон.Каптелов)]+[Original.(Fre)].torrent без регистрации
Золото ЗОЛОТАЯ РАЗДАЧА! СКАЧАННОЕ НЕ ЗАСЧИТЫВАЕТСЯ! Золото
Дата: Зарегистрирован   [ Тип: внутренний ] Как тут cкачать?
MAGNET ссылка
MAGNET ссылка


Скачать .torrent

16 KB

Статус: проверено DHT
Скачан: торрент - 104 раз, раздача полностью - 0 раз
Размер: 1,49 GB
Оценка:  - (Голосов: 0)
Поблагодарили: 1
Поделиться ссылкой на эту раздачу с друзьями:
В контактеFacebookОдноклассникиTwitterLivejournalМой МирLiveinternet
 

 
Показать сообщения:    


Вы не можете начинать темы
Вы не можете отвечать на сообщения
Вы не можете редактировать свои сообщения
Вы не можете удалять свои сообщения
Вы не можете голосовать в опросах
Вы не можете прикреплять файлы к сообщениям
Вы можете скачивать файлы