Loading...
Error

Скачать Приключения Бакару Банзая в восьмом измерении / The Adventures of Buckaroo Banzai Across the 8th Dimension (У. Д. Рихтер) [1984, приключения, фантастика, комедия абсурда, BDRip] [DVO] торрент без регистрации

 
Статистика раздачи
Размер:  1,46 GB   |    Скачан:  106 раз
Сидов:  1  [  0 KB/s  ]  
 
Автор Сообщение

Marsianka

[] 

Приключения Бакару Банзая в восьмом измерении

The Adventures of Buckaroo Banzai Across the 8th Dimension
Страна: США
Жанр: приключения, фантастика, комедия абсурда
Год выпуска: 1984
Продолжительность: 01:42:35
Перевод: Профессиональный (двухголосый закадровый) - НТВ+
Cубтитры: нет
Режиссер: У. Д. Рихтер / W.D. Richter
В ролях: Питер Уэллер, Джон Литгоу, Эллен Баркин, Джефф Голдблюм, Кристофер Ллойд, Льюис Смит, Розалинд Кэш, Роберт Ито, Пепе Серна, Рональд Лейси...
Описание: Задуманная как культовый фильм, эта фантастическая комедия заставит посмеяться любителей абсурда - есть в ней своеобразный шарм. Приятно чокнутый Голдблюм, Литгоу в роли находящегося в состоянии постоянного безумия ученого и целая банда инопланетян-захватчиков в ярких, цветастых "гавайках". Главный персонаж, чье имя присутствует в названии (Уэллер), ядерный физик, нейрохирург и рок-звезда одновременно, спасает мир от красных лектроидов, пришельцев из далекой галактики. В самом начале фильма Уэллер пытается проехать сквозь гору, испытывая изобретенный им "колебательный сверхтрастер". Это устройство жутко нужно пришельцам - без него им не вернуться домой. Доктор Эмилио Лизардо (Литгоу), занимавшийся теми же исследованиями лет тридцать тому назад, сбежал из психиатрической больницы и снова открыл свою лавочку, намереваясь править миром вместе с красными лектроидами. Вот, что можно вычленить из сюжета, напичканного шутками, словечками, фразами, приколами и ситуациями. (Иванов М.)

СЕМПЛ
Качество видео: BDRip, спасибо FREEDONOR за исходник - BDRemux.HDTracker
Формат видео: AVI
Видео: XviD, 720x304 (2.368:1), 23.976 fps, 1833 kbps avg, 0.35 bit/pixel
Аудио: RusDVO (НТВ+) - AC3 Dolby Digital, 48 kHz, 192 kbps, 2/0 (L,R) ch

Код:

Общее
Полное имя                               : Priklyucheniya.Bakaru.Banzaya.v.Vosmom.Izmerenii.1984.XviD.BDRip.avi
Формат                                   : AVI
Формат/Информация                        : Audio Video Interleave
Размер файла                             : 1,46 Гбайт
Продолжительность                        : 1 ч. 42 м.
Общий поток                              : 2035 Кбит/сек
Название фильма                          : Priklyucheniya.Bakaru.Banzaya.v.Vosmom.Izmerenii.1984.XviD.BDRip
Режиссёр                                 : rip by MetionInka
Жанр                                     : Adventure/Comedy/Romance
Программа кодирования                    : VirtualDubMod 1.5.10.3 | www.virtualdub-fr.org || (build 2550/release)
Формат оригинала/Имя                     : Buckaroo Banzai / W.D. Richter
Правообладатель                          : rutracker.org / RG TRU
Видео
Идентификатор                            : 0
Формат                                   : MPEG-4 Visual
Профиль формата                          : Advanced Simple@L5
Параметр BVOP формата                    : 2
Параметр QPel формата                    : Нет
Параметр GMC формата                     : Без точки перехода
Параметр матрицы формата                 : Выборочная
Идентификатор кодека                     : XVID
Идентификатор кодека/Подсказка           : XviD
Продолжительность                        : 1 ч. 42 м.
Битрейт                                  : 1833 Кбит/сек
Ширина                                   : 720 пикселей
Высота                                   : 304 пикселя
Соотношение сторон                       : 2,35:1
Частота кадров                           : 23,976 кадра/сек
Цветовое пространство                    : YUV
Субдискретизация насыщенности            : 4:2:0
Битовая глубина                          : 8 бит
Тип развёртки                            : Прогрессивная
Метод сжатия                             : С потерями
Бит/(Пиксели*Кадры)                      : 0.349
Размер потока                            : 1,31 Гбайт (90%)
Библиотека кодирования                   : XviD 73
Аудио
Идентификатор                            : 1
Формат                                   : AC-3
Формат/Информация                        : Audio Coding 3
Расширение режима                        : CM (complete main)
Параметр Endianness формата              : Big
Идентификатор кодека                     : 2000
Продолжительность                        : 1 ч. 42 м.
Вид битрейта                             : Постоянный
Битрейт                                  : 192 Кбит/сек
Каналы                                   : 2 канала
Расположение каналов                     : Front: L R
Частота                                  : 48,0 КГц
Битовая глубина                          : 16 бит
Метод сжатия                             : С потерями
Размер потока                            : 141 Мбайт (9%)
Выравнивание                             : Разделение по промежуткам
Продолжительность промежутка             : 42  мс. (1,00 видеокадр)
Время предзагрузки промежутка            : 500  мс.



Скачать Приключения.Бакару.Банзая.в.восьмом.измерении.The.Adventures.of.Buckaroo.Banzai.Across.the.8th.Dimension.(У.Д.Рихтер).[1984.приключения.фантастика.комедия.абсурда.BDRip].[DVO].torrent без регистрации
Золото ЗОЛОТАЯ РАЗДАЧА! СКАЧАННОЕ НЕ ЗАСЧИТЫВАЕТСЯ! Золото
Дата: Зарегистрирован   [ Тип: внутренний ] Как тут cкачать?
MAGNET ссылка
MAGNET ссылка


Скачать .torrent

15 KB

Статус: проверено DHT
Скачан: торрент - 106 раз, раздача полностью - 5 раз
Размер: 1,46 GB
Оценка:  - (Голосов: 0)
Поблагодарили: 0
Поделиться ссылкой на эту раздачу с друзьями:
В контактеFacebookОдноклассникиTwitterLivejournalМой МирLiveinternet
 

 
Показать сообщения:    


Вы не можете начинать темы
Вы не можете отвечать на сообщения
Вы не можете редактировать свои сообщения
Вы не можете удалять свои сообщения
Вы не можете голосовать в опросах
Вы не можете прикреплять файлы к сообщениям
Вы можете скачивать файлы