Loading...
Error

Скачать Беглецы / Les Fugitifs (Франсис Вебер) [1986, комедия, BDRip] [MVO(ОРТ)] + [DUB(Cоветсткий)] + [MVO] + [DVO] + [Original (FR)] + [Sub(rus)] торрент без регистрации

 
Статистика раздачи
Размер:  1,98 GB   |    Скачан:  122 раза
Сидов:  1  [  0 KB/s  ]  
 
Автор Сообщение

Marsianka

[] 

Беглецы

Les Fugitifs
Страна: Франция
Жанр: комедия
Год выпуска: 1986
Продолжительность: 01:29:11
Перевод #1: Профессиональный (многоголосый закадровый) - канал ОРТ
Перевод #2: Профессиональный (дублированный) - Советский дубляж
Перевод #3: Профессиональный (многоголосый закадровый) отдельным файлом
Перевод #4: Профессиональный (двухголосый закадровый) отдельным файлом
Орининальная дорожка: французский отдельным файлом
Cубтитры: русские
Режиссер: Франсис Вебер / Francis Veber)
В ролях: Пьер Ришар, Жерар Депардье, Жан Карме, Морис Барье, Жан Бенгиги, Ролан Бланш и др.
Описание: Раскаявшийся и "завязавший" грабитель Люка (Жерар Депардье), выйдя из тюрьмы, оказывается участником ограбления банка - только на этот раз в качестве жертвы. Правда, Люка понимает, что полиция ни в коем случае не поверит в случайность происходящего. Тем более, что его "коллега" Пиньон (Пьер Ришар) - дебютант и хронический неудачник, решившийся на эту акцию только ради маленькой дочери Жанны. Так поначалу ненавидящие друг друга антиподы оказываются в одной, идущей ко дну, лодке.
СЕМПЛ

Качество видео: BDRip, спасибо FREEDONOR за исходник - BDRemux.
Формат видео: AVI
Видео: XviD, 720x400 (1.80:1), 24 fps, 2010 kbps avg, 0.26 bit/pixel
Аудио #1: RusMVO (ОРТ) - AC3 Dolby Digital, 48 kHz, 192 kbps, 2/0 (L,R) ch
Аудио #2: RusDUB - MPEG Layer 3, 48 kHz, 128 kbps, 2ch -
Аудио #3: RusMVO - AC3 Dolby Digital, 48 kHz, 448 kbps, 6 chnls (3/2 .1) - отдельным файлом
Аудио #4: RusDVO - AC3 Dolby Digital, 48 kHz, 192 kbps, 2/0 (L,R) ch - отдельным файлом
Аудио #5: Original(FR) - AC3 Dolby Digital, 48 kHz, 192 kbps, 2/0 (L,R) ch - отдельным файлом
Субтитры: Русские, softsub (SRT), (кодировка - ANSI) отдельным файлом

Код:

Общее
Полное имя                               : Begletsy.1986.XviD.BDRip.MetionInka\Begletsy.1986.XviD.BDRip.MetionInka.avi
Формат                                   : AVI
Формат/Информация                        : Audio Video Interleave
Размер файла                             : 1,46 Гбайт
Продолжительность                        : 1 ч. 29 м.
Общий поток                              : 2345 Кбит/сек
Название фильма                          : Begletsy.1986.XviD.BDRip.MetionInka
Режиссёр                                 : rip by MrtionInka
Жанр                                     : Comedy
Программа кодирования                    : VirtualDubMod 1.5.10.3 | www.virtualdub-fr.org || (build 2550/release)
Формат оригинала/Имя                     : Les Fugitifs / 1986 / Francis Veber
Правообладатель                          : rutracker.org & RG TRU
Примечание                               : RusMVO + RusDUB
Видео
Идентификатор                            : 0
Формат                                   : MPEG-4 Visual
Профиль формата                          : Advanced Simple@L5
Параметр BVOP формата                    : 2
Параметр QPel формата                    : Нет
Параметр GMC формата                     : Без точки перехода
Параметр матрицы формата                 : Выборочная
Идентификатор кодека                     : XVID
Идентификатор кодека/Подсказка           : XviD
Продолжительность                        : 1 ч. 29 м.
Битрейт                                  : 2011 Кбит/сек
Ширина                                   : 720 пикселей
Высота                                   : 400 пикселей
Соотношение сторон                       : 16:9
Частота кадров                           : 24,000 кадра/сек
Цветовое пространство                    : YUV
Субдискретизация насыщенности            : 4:2:0
Битовая глубина                          : 8 бит
Тип развёртки                            : Прогрессивная
Метод сжатия                             : С потерями
Бит/(Пиксели*Кадры)                      : 0.291
Размер потока                            : 1,25 Гбайт (86%)
Библиотека кодирования                   : XviD 73
Аудио #1
Идентификатор                            : 1
Формат                                   : AC-3
Формат/Информация                        : Audio Coding 3
Расширение режима                        : CM (complete main)
Параметр Endianness формата              : Big
Идентификатор кодека                     : 2000
Продолжительность                        : 1 ч. 29 м.
Вид битрейта                             : Постоянный
Битрейт                                  : 192 Кбит/сек
Каналы                                   : 2 канала
Расположение каналов                     : Front: L R
Частота                                  : 48,0 КГц
Битовая глубина                          : 16 бит
Метод сжатия                             : С потерями
Размер потока                            : 122 Мбайт (8%)
Выравнивание                             : Разделение по промежуткам
Продолжительность промежутка             : 42  мс. (1,00 видеокадр)
Время предзагрузки промежутка            : 500  мс.
Аудио #2
Идентификатор                            : 2
Формат                                   : MPEG Audio
Версия формата                           : Version 1
Профиль формата                          : Layer 3
Режим                                    : Joint stereo
Расширение режима                        : MS Stereo
Идентификатор кодека                     : 55
Идентификатор кодека/Подсказка           : MP3
Продолжительность                        : 1 ч. 29 м.
Вид битрейта                             : Постоянный
Битрейт                                  : 128 Кбит/сек
Каналы                                   : 2 канала
Частота                                  : 48,0 КГц
Метод сжатия                             : С потерями
Размер потока                            : 81,7 Мбайт (5%)
Выравнивание                             : Соединение по промежуткам
Продолжительность промежутка             : 42  мс. (1,00 видеокадр)
Время предзагрузки промежутка            : 504  мс.
Библиотека кодирования                   : LAME3.99r
Настройки программы                      : -m j -V 4 -q 0 -lowpass 17 -b 128



Скачать Беглецы.Les.Fugitifs.(Франсис.Вебер).[1986.комедия.BDRip].[MVO(ОРТ)].+.[DUB(Cоветсткий)].+.[MVO].+.[DVO].+.[Original.(FR)].+.[Sub(rus)].torrent без регистрации
Золото ЗОЛОТАЯ РАЗДАЧА! СКАЧАННОЕ НЕ ЗАСЧИТЫВАЕТСЯ! Золото
Дата: Зарегистрирован   [ Тип: внутренний ] Как тут cкачать?
MAGNET ссылка
MAGNET ссылка


Скачать .torrent

21 KB

Статус: проверено DHT
Скачан: торрент - 122 раз, раздача полностью - 48 раз
Размер: 1,98 GB
Оценка:  - (Голосов: 0)
Поблагодарили: 0
Поделиться ссылкой на эту раздачу с друзьями:
В контактеFacebookОдноклассникиTwitterLivejournalМой МирLiveinternet
 

 
Показать сообщения:    


Вы не можете начинать темы
Вы не можете отвечать на сообщения
Вы не можете редактировать свои сообщения
Вы не можете удалять свои сообщения
Вы не можете голосовать в опросах
Вы не можете прикреплять файлы к сообщениям
Вы можете скачивать файлы