Loading...
Error

Скачать Рабыни / Доисторические женщины / Рабские девочки / Рабыни страсти / Slave girls / Prehistoric women (Майкл Каррерас) [1967, фэнтези, приключения, DVDRip] [MVO] + [Oригинал] +[Sub (Rus)] торрент без регистрации

 
Статистика раздачи
Размер:  1,46 GB   |    Скачан:  211 раз
Сидов:  1  [  0 KB/s  ]  
 
Автор Сообщение

Marsianka

[] 

Рабыни / Доисторические женщины / Рабские девочки / Рабыни страсти / Slave girls / Prehistoric women
Страна: Великобритания
Студия: Seven Arts Productions, Hammer Film Productions
Жанр: фэнтези, приключения
Год выпуска: 1967
Продолжительность: 01:29:25
Перевод: Профессиональный (многоголосый закадровый)
Cубтитры: русские
Оригинальная аудиодорожка: английский
Режиссер: Майкл Каррерас / Michael Carreras
В ролях: Мартин Бесвик, Эдина Ронай, Майкл Латимер, Стефани Рэндолл, Кэрол Уайт, Александра Стивенсон, Ивонн Хорнер, Сидни Бромли, Фрэнк Хейден, Роберт Рэглан ...
Описание: Дэвид Маршан, отличный гид и знаток джунглей похищен одним из племени аборигенов, желающих принести его на жертвенный алтарь своему божеству — белому носорогу. Казалось бы, что его судьба предрешена, как вдруг, он переместился в прошлое, в доисторические времена, когда белокурые женщины были рабынями темноволосых. Дэвид отвёрг любовь королевы темноволосых, за это он был заточен в темницу, но приключения только начинаются…



Качество видео: DVDRip
Формат видео: AVI
Видео: XviD build 73, 704x304 (2.35:1), ~1920 kbps, 25.000 fps, 0.358 bpp

Аудио: AС3, 48 KHz, 2 ch, 192 kbps - (Rus)
Аудио 2: AС3, 48 KHz, 2 ch, 224 kbps - (Org)
Формат субтитров: softsub (SRT)
Общее
Полное имя : D:\Rutracker\Рабыни страсти 1967\Rabyni.1967.DVDRip.avi
Формат : AVI
Формат/Информация : Audio Video Interleave
Размер файла : 1,46 Гбайт
Продолжительность : 1 ч. 29 м.
Общий поток : 2338 Кбит/сек
Название фильма : Рабыни /Slave girls / Prehistoric women /1967 -=NN@LIFE=-
Режиссёр : Rip by nnlabetik
Программа кодирования : VirtualDubMod 1.5.10.2 (build 2540/release)
Библиотека кодирования : VirtualDubMod build 2540/release
Видео
Идентификатор : 0
Формат : MPEG-4 Visual
Профиль формата : Advanced Simple@L5
Параметр BVOP формата : 1
Параметр QPel формата : Да
Параметр GMC формата : Без точки перехода
Параметр матрицы формата : Выборочная
Идентификатор кодека : XVID
Идентификатор кодека/Подсказка : XviD
Продолжительность : 1 ч. 29 м.
Битрейт : 1918 Кбит/сек
Ширина : 704 пикселя
Высота : 304 пикселя
Соотношение сторон : 2,35:1
Частота кадров : 25,000 кадров/сек
Цветовое пространство : YUV
Субдискретизация насыщенности : 4:2:0
Битовая глубина : 8 бит
Тип развёртки : Прогрессивная
Метод сжатия : С потерями
Бит/(Пиксели*Кадры) : 0.358
Размер потока : 1,20 Гбайт (82%)
Библиотека кодирования : XviD 73
Аудио #1
Идентификатор : 1
Формат : AC-3
Формат/Информация : Audio Coding 3
Идентификатор кодека : 2000
Продолжительность : 1 ч. 27 м.
Вид битрейта : Постоянный
Битрейт : 192 Кбит/сек
Каналы : 2 канала
Частота : 48,0 КГц
Метод сжатия : С потерями
Размер потока : 120 Мбайт (8%)
Выравнивание : Разделение по промежуткам
Продолжительность промежутка : 41 мс. (1,02 видеокадр)
Время предзагрузки промежутка : 500 мс.
Аудио #2
Идентификатор : 2
Формат : AC-3
Формат/Информация : Audio Coding 3
Идентификатор кодека : 2000
Продолжительность : 1 ч. 27 м.
Вид битрейта : Постоянный
Битрейт : 224 Кбит/сек
Каналы : 2 канала
Частота : 48,0 КГц
Метод сжатия : С потерями
Размер потока : 140 Мбайт (9%)
Выравнивание : Разделение по промежуткам
Продолжительность промежутка : 41 мс. (1,02 видеокадр)
Время предзагрузки промежутка : 500 мс.
Релиз от: nnlabetik



Скачать Рабыни.Доисторические.женщины.Рабские.девочки.Рабыни.страсти.Slave.girls.Prehistoric.women.(Майкл.Каррерас).[1967.фэнтези.приключения.DVDRip].[MVO].+.[Oригинал].+[Sub.(Rus)].torrent без регистрации
Золото ЗОЛОТАЯ РАЗДАЧА! СКАЧАННОЕ НЕ ЗАСЧИТЫВАЕТСЯ! Золото
Дата: Зарегистрирован   [ Тип: внутренний ] Как тут cкачать?
MAGNET ссылка
MAGNET ссылка


Скачать .torrent

15 KB

Статус: проверено DHT
Скачан: торрент - 211 раз, раздача полностью - 38 раз
Размер: 1,46 GB
Оценка:  - (Голосов: 0)
Поблагодарили: 0
Поделиться ссылкой на эту раздачу с друзьями:
В контактеFacebookОдноклассникиTwitterLivejournalМой МирLiveinternet
 

 
Показать сообщения:    


Вы не можете начинать темы
Вы не можете отвечать на сообщения
Вы не можете редактировать свои сообщения
Вы не можете удалять свои сообщения
Вы не можете голосовать в опросах
Вы не можете прикреплять файлы к сообщениям
Вы можете скачивать файлы