Loading...
Error

Скачать Красный рассвет / Red Dawn (Джон Милиус) [1984, боевик, драма, приключения, BDRip] [Dub] торрент без регистрации

 
Статистика раздачи
Размер:  1,46 GB   |    Скачан:  103 раза
Сидов:  1  [  0 KB/s  ]  
 
Автор Сообщение

Marsianka

[] 

Красный рассвет / Red Dawn


Год выпуска: 1984
Страна: США
Жанр: Боевик, драма
Продолжительность: 01:54:00
Перевод: Профессиональный Дублированный

Субтитры: нет
Режиссер: Джон Милиус / John Milius

В ролях: Патрик Суэйзи, С. Томас Хауэлл, Лиа Томпсон, Чарли Шин, Даррен Далтон, Дженнифер Грэй, Брэд Сэвадж, Даг Тоби, Бен Джонсон, Гарри Дин Стэнтон, Рон О`Нил, Уильям Смит, Пауэрс Бут, Рой Дженсон, Пепе Серна, Лэйн Смит, Фил Мид, Дэн Спаркс, Джордж Фишер, Зитто Казанн и др.
Описание: Мирным утром из окна классной комнаты школьники вдруг видят, как на привычную футбольную площадку приземляется целая армия парашютистов. Началось военное вторжение на территорию США! Когда в их город врываются иностранные войска, восемь подростков убегают в горы. Назвав свой отряд именем школьной футбольной команды, `Росомахи`, они начинают настоящую партизанскую войну, чтобы защитить своих родителей, своих друзей, свою страну.

Качество: BDRip / Исх.
Формат: AVI
Видео кодек: XviD
Видео: 704x384 (1.83:1), 23.976 fps, XviD build 73 ~1380 kbps avg, 0.21 bit/pixel
Аудио: 48 kHz, AC3 Dolby Digital, 3/2 (L,C,R,l,r) ch, ~448 kbps

General
Complete name : D:\TORRENTS for WORK\RIPS in WORK\Krasniy_Rassvet_1984_BDRip_Menen.avi
Format : AVI
Format/Info : Audio Video Interleave
File size : 1.46 GiB
Duration : 1h 54mn
Overall bit rate : 1 838 Kbps
Movie name : Krasniy_Rassvet_1984_BDRip_Menen
Director : Menen
Writing application : VirtualDubMod 1.5.10.2 (build 2540/release)
Video
ID : 0
Format : MPEG-4 Visual
Format profile : Advanced Simple@L5
Format settings, BVOP : 1
Format settings, QPel : No
Format settings, GMC : No warppoints
Format settings, Matrix : Custom
Codec ID : XVID
Codec ID/Hint : XviD
Duration : 1h 54mn
Bit rate : 1 380 Kbps
Width : 704 pixels
Height : 384 pixels
Display aspect ratio : 1.85:1
Frame rate : 23.976 fps
Color space : YUV
Chroma subsampling : 4:2:0
Bit depth : 8 bits
Scan type : Progressive
Compression mode : Lossy
Bits/(Pixel*Frame) : 0.213
Stream size : 1.10 GiB (75%)
Writing library : XviD 73
Audio
ID : 1
Format : AC-3
Format/Info : Audio Coding 3
Mode extension : CM (complete main)
Format settings, Endianness : Big
Codec ID : 2000
Duration : 1h 54mn
Bit rate mode : Constant
Bit rate : 448 Kbps
Channel(s) : 5 channels
Channel positions : Front: L C R, Side: L R
Sampling rate : 48.0 KHz
Bit depth : 16 bits
Compression mode : Lossy
Stream size : 365 MiB (24%)
Alignment : Split accross interleaves
Interleave, duration : 42 ms (1.00 video frame)
Interleave, preload duration : 500 ms





Скачать Красный.рассвет.Red.Dawn.(Джон.Милиус).[1984.боевик.драма.приключения.BDRip].[Dub].torrent без регистрации
Золото ЗОЛОТАЯ РАЗДАЧА! СКАЧАННОЕ НЕ ЗАСЧИТЫВАЕТСЯ! Золото
Дата: Зарегистрирован   [ Тип: внутренний ] Как тут cкачать?
MAGNET ссылка
MAGNET ссылка


Скачать .torrent

15 KB

Статус: проверено DHT
Скачан: торрент - 103 раз, раздача полностью - 2 раз
Размер: 1,46 GB
Оценка:  - (Голосов: 0)
Поблагодарили: 1
Поделиться ссылкой на эту раздачу с друзьями:
В контактеFacebookОдноклассникиTwitterLivejournalМой МирLiveinternet
 

 
Показать сообщения:    


Вы не можете начинать темы
Вы не можете отвечать на сообщения
Вы не можете редактировать свои сообщения
Вы не можете удалять свои сообщения
Вы не можете голосовать в опросах
Вы не можете прикреплять файлы к сообщениям
Вы можете скачивать файлы