Loading...
Error

Скачать Пара ботинок 32-го размера / Кто-то видел убийцу / Un par de zapatos del '32 / The Student Connection (Рафаэль Ромеро Марчент) [1974, триллер, SATRip] [AVO (Алексеев)] торрент без регистрации

 
Статистика раздачи
Размер:  744 MB   |    Скачан:  101 раз
Сидов:  1  [  0 KB/s  ]  
 
Автор Сообщение

Marsianka

[] 

Пара ботинок 32-го размера / Un par de zapatos del '32
Страна: Испания, Италия
Жанр: триллер
Год выпуска: 1974
Продолжительность: 1:21:55
Перевод: Авторский (одноголосый закадровый) Антон Алексеев
Cубтитры: нет
Оригинальная аудиодорожка: нет
Режиссер: Рафаэль Ромеро Марчент / Rafael Romero Marchent
В ролях: Рэй Милланд, Сильва Кошина, Фернандо Э. Ромеро, Рамиро Оливерос, Франко Джакобини, Чарли Браво, Мария Сильва, Мэй Хэзерли, Эдуардо Кальво, Мариса Порсель, Луис Гаспар, Мария Вико, Марио Алекс, Уолтер Самудио, Свон Хайнце, Антонио Оренго, Аугусто Бескос
Описание: Все началось, когда пожилой директор школы влюбился в молодую мать одного из своих подопечных. Чтобы супруг Сони не мешал счастью престарелого ловеласа, тот нанял наемного убийцу, который не придумал ничего лучше, как устранить своего клиента вместе с пассажирами целого самолета. Узнав о происшедшем, пожилой педагог ничтоже сумняшеся убивает киллера пепельницей прямо в своем кабинете. А затем начинает охоту на маленького свидетеля из числа учеников, о котором ему известно только, что он носит обувь 32 размера. (с) oldys
Доп. информация:
Релиз кинопортала BLIZZARDKID
Русскую дорожку предоставил Minhers76
Качество видео: SATRip
Формат видео: AVI
Видео: 656x400 (1.64:1), 25 fps, XviD build 50 ~1132 kbps avg, 0.17 bit/pixel
Аудио: 48 kHz, MPEG Layer 3, 2 ch, ~128.00 kbps avg
General
Complete name : ...\Un par de zapatos del '32.avi
Format : AVI
Format/Info : Audio Video Interleave
File size : 744 MiB
Duration : 1h 21mn
Overall bit rate : 1 270 Kbps
Writing application : VirtualDubMod 1.5.10.3 | www.virtualdub-fr.org || (build 2550/release)
Writing library : VirtualDubMod build 2550/release
Video
ID : 0
Format : MPEG-4 Visual
Format profile : Advanced Simple@L5
Format settings, BVOP : 2
Format settings, QPel : No
Format settings, GMC : No warppoints
Format settings, Matrix : Default (H.263)
Codec ID : XVID
Codec ID/Hint : XviD
Duration : 1h 21mn
Bit rate : 1 133 Kbps
Width : 656 pixels
Height : 400 pixels
Display aspect ratio : 1.640
Frame rate : 25.000 fps
Color space : YUV
Chroma subsampling : 4:2:0
Bit depth : 8 bits
Scan type : Progressive
Compression mode : Lossy
Bits/(Pixel*Frame) : 0.173
Stream size : 664 MiB (89%)
Writing library : XviD 1.2.1 (UTC 2008-12-04)
Audio
ID : 1
Format : MPEG Audio
Format version : Version 1
Format profile : Layer 3
Codec ID : 55
Codec ID/Hint : MP3
Duration : 1h 21mn
Bit rate mode : Constant
Bit rate : 128 Kbps
Channel(s) : 2 channels
Sampling rate : 48.0 KHz
Compression mode : Lossy
Stream size : 75.0 MiB (10%)
Alignment : Aligned on interleaves
Interleave, duration : 40 ms (1.00 video frame)
Interleave, preload duration : 504 ms



Скачать Пара.ботинок.32-го.размера.Кто-то.видел.убийцу.Un.par.de.zapatos.del.'32.The.Student.Connection.(Рафаэль.Ромеро.Марчент).[1974.триллер.SATRip].[AVO.(Алексеев)].torrent без регистрации
Золото ЗОЛОТАЯ РАЗДАЧА! СКАЧАННОЕ НЕ ЗАСЧИТЫВАЕТСЯ! Золото
Дата: Зарегистрирован   [ Тип: внутренний ] Как тут cкачать?
MAGNET ссылка
MAGNET ссылка


Скачать .torrent

15 KB

Статус: проверено DHT
Скачан: торрент - 101 раз, раздача полностью - 3 раз
Размер: 744 MB
Оценка:  - (Голосов: 0)
Поблагодарили: 0
Поделиться ссылкой на эту раздачу с друзьями:
В контактеFacebookОдноклассникиTwitterLivejournalМой МирLiveinternet
 

 
Показать сообщения:    


Вы не можете начинать темы
Вы не можете отвечать на сообщения
Вы не можете редактировать свои сообщения
Вы не можете удалять свои сообщения
Вы не можете голосовать в опросах
Вы не можете прикреплять файлы к сообщениям
Вы можете скачивать файлы