Loading...
Error

Скачать Чернобыль: Последнее предупреждение / Chernobyl: The Final Warning (Энтони Пэйдж) [1991, драма, SATRip] [MVO]+[Dub] торрент без регистрации

 
Статистика раздачи
Размер:  1,46 GB   |    Скачан:  188 раз
Сидов:  1  [  0 KB/s  ]  
 
Автор Сообщение

Marsianka

[] 

Чернобыль. Последнее предупреждение / Chernobyl: The Final Warning
Страна: США, Великобритания, СССР
Жанр: Драма
Год выпуска: 1991
Продолжительность: 1:33:52
Перевод: Профессиональный (многоголосый закадровый), дублированный
Режиссер: Энтони Пэйдж / Anthony Page
В ролях: Джон Войт, Джейсон Робардс, Самми Дэвис, Аннетт Кросби, Иан МакДайармид, Винсент Риотта, Стивен Хартли, Джим Ишида, Алекс Нортон, Дебора Уэстон, Тревор Купер, Себастьян Шоу, Энн Дайсон, Крис Уокер, Лоркан Кранич, Кейт Эдвардс, Сэм Грэм, Карен Мигер, Джек Клэфф, Джонатан Хачетт, Каролина Милмо, Мэри Грэйди, Юрий Петров (II), О. Новиков, Игорь Ливанов, Александр Краснопольский, Дмитрий Матвеев, Владимир Трошин, Андрей Смелый, Вадим Ледогоров, Дмитрий Орлов (V), Алексей Елизаветский, Елена Покатилова, Наталья Ковалёва, Карина Дымонт, Кеннет Локер, Николас Локер, Шир Гэйл, Геннадий Юхтин, Артур Попов, Анатолий Немов, Глеб Плаксин, Сергей Реусенко, Валерий Половинкин, Игорь Андреев, Тамара Воронкова, Юлия Живейнова, Владимир Червяков, Павел Скороходов, Михаил Феоктистов, Лидия Данилова (II), Анна Варпаховская, Лариса Бравицкая, Жанна Александрова, Чарльз Кинг, Антон Вилькин
Описание: Драма по мотивам книги Роберта Питера Гейла и Томаса Хаузера.
Основанный на документальной книге, фильм рассказывает о международном сотрудничестве врачей, помогающих России в ликвидации последствий чернобыльской трагедии. Фигурируют исторические персонажи: Арман Хаммер, Михаил Горбачев.
Доп. информация: Производство: TURNER PICTURE INC. (США), СОЮЗКИНОСЕРВИС, ЛАДЬЯ



Качество видео: SATRip
Формат видео: AVI
Видео: XviD MPEG-4 , 704x528 (1.33:1) , 25 fps , 2017 kbps avg
Аудио: AC3 , 48 kHz , 192.00 kbps avg , 2/0 (L,R) ch
Сэмпл
General
Complete name Chernobyl The Final Warning 1991.avi
Format : AVI
Format/Info : Audio Video Interleave
File size : 1.46 GiB
Duration : 1h 33mn
Overall bit rate : 2 219 Kbps
Writing library : VirtualDub build 35390/release
Video
ID : 0
Format : MPEG-4 Visual
Format profile : Advanced Simple@L5
Format settings, BVOP : 2
Format settings, QPel : No
Format settings, GMC : No warppoints
Format settings, Matrix : Default (H.263)
Codec ID : XVID
Codec ID/Hint : XviD
Duration : 1h 33mn
Bit rate : 2 017 Kbps
Width : 704 pixels
Height : 528 pixels
Display aspect ratio : 4:3
Frame rate : 25.000 fps
Color space : YUV
Chroma subsampling : 4:2:0
Bit depth : 8 bits
Scan type : Progressive
Compression mode : Lossy
Bits/(Pixel*Frame) : 0.217
Stream size : 1.32 GiB (91%)
Writing library : XviD 64
Audio
ID : 1
Format : AC-3
Format/Info : Audio Coding 3
Mode extension : CM (complete main)
Format settings, Endianness : Big
Codec ID : 2000
Duration : 1h 33mn
Bit rate mode : Constant
Bit rate : 192 Kbps
Channel(s) : 2 channels
Channel positions : Front: L R
Sampling rate : 48.0 KHz
Bit depth : 16 bits
Compression mode : Lossy
Stream size : 129 MiB (9%)
Alignment : Aligned on interleaves
Interleave, duration : 40 ms (1.00 video frame)
Interleave, preload duration : 512 ms



Скачать Чернобыль.Последнее.предупреждение.Chernobyl.The.Final.Warning.(Энтони.Пэйдж).[1991.драма.SATRip].[MVO]+[Dub].torrent без регистрации
Золото ЗОЛОТАЯ РАЗДАЧА! СКАЧАННОЕ НЕ ЗАСЧИТЫВАЕТСЯ! Золото
Дата: Зарегистрирован   [ Тип: внутренний ] Как тут cкачать?
MAGNET ссылка
MAGNET ссылка


Скачать .torrent

15 KB

Статус: проверено DHT
Скачан: торрент - 188 раз, раздача полностью - 22 раз
Размер: 1,46 GB
Оценка:  - (Голосов: 0)
Поблагодарили: 0
Поделиться ссылкой на эту раздачу с друзьями:
В контактеFacebookОдноклассникиTwitterLivejournalМой МирLiveinternet
 

 
Показать сообщения:    


Вы не можете начинать темы
Вы не можете отвечать на сообщения
Вы не можете редактировать свои сообщения
Вы не можете удалять свои сообщения
Вы не можете голосовать в опросах
Вы не можете прикреплять файлы к сообщениям
Вы можете скачивать файлы