Loading...
Error

Скачать Полный массаж тела / Full Body Massage (Николас Роуг) [1995, драма, DVDRip] [AVO (Андрей Гаврилов)] торрент без регистрации

 
Статистика раздачи
Размер:  1,37 GB   |    Скачан:  114 раз
Сидов:  1  [  0 KB/s  ]  
 
Автор Сообщение

Marsianka

[] 

Полный массаж тела / Full Body Massage
Страна: США
Жанр: Драма
Год выпуска: 1995
Продолжительность: 01:29:28
Перевод: Авторский (одноголосый закадровый) - Андрей Гаврилов
Cубтитры: нет
Режиссёр: Николас Роуг / Nicolas Roeg
В ролях: Мими Роджерс, Брайан Браун, Кристофер Бёргард, Элизабет Барондес, Гарет Уильямс, Патрик Нил Куинн, Хезер Ганн, Габриэлла Холл, Brian McLane, Уильям Фуллер
Описание: Нина, успешный, но очень уставший арт-дилер, с удивлением обнаружила, что её обычный массажист Дуглас, послал замену — Фитча — обеспечить ей регулярный ежедневный массаж в её доме. Нина и Фитч считают, что оба они полная противоположность друг другу. Их различия в темпераменте и образе жизни создают постоянное трение при общении. Но через ежедневные разговоры и воспоминания о прошлом оказывается, что у них много общего….

Релиз выложен по просьбе ale_x2008
За оцифрованную дорожку благодарим - DeASS
За синхронизацию, ремастирование и наложение при помощи Adobe Audition, Sony Vegas и VirtualDubMod благодарим - ale_x2008
DVDRip от ale_x2008
Исходник - DVD5
Качество видео: DVDRip
Формат видео: AVI
Видео: XviD build 73, 720x544 (1.32:1), 25.00 fps, 1986 kbps avg, 0.20 bit/pixel
Аудио: AC3 Dolby Digital, 48000Hz, 2/0 (L,R) ch (mono), 192.00 kbps avg

Сэмпл
Общее
Полное имя : D:\Full Body Massage (Полный массаж тела) Gavrilov.avi
Формат : AVI
Формат/Информация : Audio Video Interleave
Размер файла : 1,37 Гбайт
Продолжительность : 1 ч. 29 м.
Общий поток : 2188 Кбит/сек
Режиссёр : ale_x2008
Жанр : Drama
Программа кодирования : VirtualDubMod 1.5.10.3 (build 2550/release)
Библиотека кодирования : VirtualDubMod build 2550/release
Формат оригинала/Имя : Movie
Примечание : 30.04.2014
Видео
Идентификатор : 0
Формат : MPEG-4 Visual
Профиль формата : Advanced Simple@L5
Параметр BVOP формата : 1
Параметр QPel формата : Нет
Параметр GMC формата : Без точки перехода
Параметр матрицы формата : Default (MPEG)
Идентификатор кодека : XVID
Идентификатор кодека/Подсказка : XviD
Продолжительность : 1 ч. 29 м.
Битрейт : 1987 Кбит/сек
Ширина : 720 пикселей
Высота : 544 пикселя
Соотношение сторон : 4:3
Частота кадров : 25,000 кадров/сек
Цветовое пространство : YUV
Субдискретизация насыщенности : 4:2:0
Битовая глубина : 8 бит
Тип развёртки : Прогрессивная
Метод сжатия : С потерями
Бит/(Пиксели*Кадры) : 0.203
Размер потока : 1,24 Гбайт (91%)
Библиотека кодирования : XviD 73
Аудио
Идентификатор : 1
Формат : AC-3
Формат/Информация : Audio Coding 3
Расширение режима : CM (complete main)
Параметр Endianness формата : Big
Идентификатор кодека : 2000
Продолжительность : 1 ч. 29 м.
Вид битрейта : Постоянный
Битрейт : 192 Кбит/сек
Каналы : 2 канала
Расположение каналов : Front: L R
Частота : 48,0 КГц
Битовая глубина : 16 бит
Метод сжатия : С потерями
Размер потока : 123 Мбайт (9%)
Выравнивание : Разделение по промежуткам
Продолжительность промежутка : 40 мс. (1,00 видеокадр)
Время предзагрузки промежутка : 500 мс.



Скачать Полный.массаж.тела.Full.Body.Massage.(Николас.Роуг).[1995.драма.DVDRip].[AVO.(Андрей.Гаврилов)].torrent без регистрации
Золото ЗОЛОТАЯ РАЗДАЧА! СКАЧАННОЕ НЕ ЗАСЧИТЫВАЕТСЯ! Золото
Дата: Зарегистрирован   [ Тип: внутренний ] Как тут cкачать?
MAGNET ссылка
MAGNET ссылка


Скачать .torrent

14 KB

Статус: проверено DHT
Скачан: торрент - 114 раз, раздача полностью - 11 раз
Размер: 1,37 GB
Оценка:  5 (Голосов: 1)
Поблагодарили: 1
Поделиться ссылкой на эту раздачу с друзьями:
В контактеFacebookОдноклассникиTwitterLivejournalМой МирLiveinternet
 

 
Показать сообщения:    


Вы не можете начинать темы
Вы не можете отвечать на сообщения
Вы не можете редактировать свои сообщения
Вы не можете удалять свои сообщения
Вы не можете голосовать в опросах
Вы не можете прикреплять файлы к сообщениям
Вы можете скачивать файлы