Loading...
Error

Скачать Гостья из космоса / Чужой пришелец / Alien Intruder (Рикардо Жак Гэйл) [1993, фантастика, DVDRip] [AVO (А. Дольский)] + [Original (Eng)] + [Sub (Rus)] торрент без регистрации

 
Статистика раздачи
Размер:  1,47 GB   |    Скачан:  106 раз
Сидов:  1  [  0 KB/s  ]  
 
Автор Сообщение

Marsianka

[] 

Гостья из космоса / Чужой пришелец / Alien Intruder

Страна: США
Жанр: Фантастика
Год выпуска: 1993
Продолжительность: 01:30:24
Перевод: Авторский (одноголосый закадровый) [Андрей Дольский]
Cубтитры: русские
Оригинальная аудиодорожка: английский
Режиссер: Рикардо Жак Гэйл / Ricardo Jacques Gale
В ролях: Максвелл Колфилд, Трэйси Скоггинс, Билли Ди Уильямс, Гари Робертс, Ричард Коуди, Стивен Дэвис, Джефф Конэвей, Майкл ДеЛано, Чарльз Янг
Описание: 2022 год. Околдованный красотой космической дивы, лейтенант Бормэн перестрелял весь экипаж звездолета. Четверо зэков, приговоренных на Земле к пожизненному заключению, посылаются для расследования этой трагедии
Sample | IMDB | КиноПоиск
Тип релиза: DVDRip [исх. ]
Формат видео: AVI
Видео: 688x528 (1.30:1), 25 fps, XviD build 50, 1922 kbps avg, 0.21 bit/pixel
Аудио 1: 48 kHz, AC3 Dolby Digital, 2/0 (L,R) ch, 192.00 kbps avg [Russian_AVO]
Аудио 2: 48 kHz, AC3 Dolby Digital, 2/0 (L,R) ch, 192.00 kbps avg [Original_Eng]

General
Complete name : D:\Мои релизы\Alien Intruder_RG_All_Films\Alien Intruder_RG_All_Films.avi
Format : AVI
Format/Info : Audio Video Interleave
File size : 1.47 GiB
Duration : 1h 30mn
Overall bit rate : 2 322 Kbps
Writing application : VirtualDubMod 1.6.0.0 SURROUND (build 2560/release)
Writing library : VirtualDubMod build 2560/release
Video
ID : 0
Format : MPEG-4 Visual
Format profile : Advanced Simple@L5
Format settings, BVOP : Yes
Format settings, QPel : No
Format settings, GMC : No warppoints
Format settings, Matrix : Custom
Codec ID : XVID
Codec ID/Hint : XviD
Duration : 1h 30mn
Bit rate : 1 923 Kbps
Width : 688 pixels
Height : 528 pixels
Display aspect ratio : 4:3
Frame rate : 25.000 fps
Color space : YUV
Chroma subsampling : 4:2:0
Bit depth : 8 bits
Scan type : Progressive
Compression mode : Lossy
Bits/(Pixel*Frame) : 0.212
Stream size : 1.21 GiB (83%)
Writing library : XviD 1.2.1 (UTC 2008-12-04)
Audio #1
ID : 1
Format : AC-3
Format/Info : Audio Coding 3
Mode extension : CM (complete main)
Codec ID : 2000
Duration : 1h 30mn
Bit rate mode : Constant
Bit rate : 192 Kbps
Channel(s) : 2 channels
Channel positions : Front: L R
Sampling rate : 48.0 KHz
Bit depth : 16 bits
Compression mode : Lossy
Stream size : 124 MiB (8%)
Alignment : Split accross interleaves
Interleave, duration : 40 ms (1.00 video frame)
Interleave, preload duration : 500 ms
Audio #2
ID : 2
Format : AC-3
Format/Info : Audio Coding 3
Mode extension : CM (complete main)
Codec ID : 2000
Duration : 1h 30mn
Bit rate mode : Constant
Bit rate : 192 Kbps
Channel(s) : 2 channels
Channel positions : Front: L R
Sampling rate : 48.0 KHz
Bit depth : 16 bits
Compression mode : Lossy
Stream size : 124 MiB (8%)
Alignment : Split accross interleaves
Interleave, duration : 40 ms (1.00 video frame)
Interleave, preload duration : 500 ms



Скачать Гостья.из.космоса.Чужой.пришелец.Alien.Intruder.(Рикардо.Жак.Гэйл).[1993.фантастика.DVDRip].[AVO.(А.Дольский)].+.[Original.(Eng)].+.[Sub.(Rus)].torrent без регистрации
Золото ЗОЛОТАЯ РАЗДАЧА! СКАЧАННОЕ НЕ ЗАСЧИТЫВАЕТСЯ! Золото
Дата: Зарегистрирован   [ Тип: внутренний ] Как тут cкачать?
MAGNET ссылка
MAGNET ссылка


Скачать .torrent

15 KB

Статус: проверено DHT
Скачан: торрент - 106 раз, раздача полностью - 3 раз
Размер: 1,47 GB
Оценка:  5 (Голосов: 1)
Поблагодарили: 1
Поделиться ссылкой на эту раздачу с друзьями:
В контактеFacebookОдноклассникиTwitterLivejournalМой МирLiveinternet
 

 
Показать сообщения:    


Вы не можете начинать темы
Вы не можете отвечать на сообщения
Вы не можете редактировать свои сообщения
Вы не можете удалять свои сообщения
Вы не можете голосовать в опросах
Вы не можете прикреплять файлы к сообщениям
Вы можете скачивать файлы