Loading...
Error

Скачать Два с половиной человека / Two and a Half Men (11х01-20 из 24) (Ли Аронсон, Чак Лорри) [2013, комедия, WEB-DL] [720p] [VO (T.Rec Pro)]+[Original] торрент без регистрации

 
Статистика раздачи
Размер:  14,51 GB   |    Скачан:  104 раза
Сидов:  1  [  0 KB/s  ]  
 
Автор Сообщение

МихаНЕзатор

[] 

Два с половиной человека / Two and a Half Men


Год выпуска: 2013
Страна: США
Жанр: Комедия
Продолжительность: ~00:21:22
Перевод: Любительский (одноголосый закадровый) - T.Rec Pro
Режиссёр: Ли Аронсон, Чак Лорри

В ролях: Джон Крайер, Эштон Катчер, Эмбер Тэмблин, Кончата Феррелл, Холланд Тейлор, Марин Хинкль, Мелани Лински, Дженнифер Бини Тейлор, Райан Стайлз, Эйприл Боулби и др.

Описание: Спустя восемь лет, после того как в особняке на побережье Беверли Хиллз сумбурно поселился "свежеразведенный" бездомный Алан Харпер, не стало его брата - хозяина особняка, местного бабника и знатного алкоголика Чарли. Но ушли ли с ним приключения семейства Харперов? Вряд ли, т.к. новым хозяином шикарного жилища становится очень незаурядная личность - некий Уолден Шмидт.

Доп. информация:
Релиз
Перевод: Notabenoid: IronFOX, AkI3aIPuyC, obezyna и др.
Озвучка: T.Rec Pro, текст читал kolyan
Подготовка видео: TaLi4



Качество: WEB-DL 720p
Контейнер: MKV
Видео: AVC, 1280x720 (16:9), 23.976 fps, ~3915 Kbps (0.178 bit/pixel)
Аудио #1: AC3, 48 KHz, 6 ch, 384 kbps | T.Rec Pro |
Аудио #2: AC3, 48 KHz, 6 ch, 384 kbps | Оригинал |
Субтитры: отсутствуют
General
Unique ID : 176776410840343450852771462691613630155 (0x84FDE5F7A2C0FA3892B001ABF028DECB)
Complete name : C:\Users\Администратор\Desktop\Раздачи\Two And A Half Men Season 11 720p\Two.and.a.Half.Men.S11E01.Nangnangnangnang.720p.WEB-DL.DD5.1.rus.eng.mkv
Format : Matroska
Format version : Version 2
File size : 731 MiB
Duration : 21mn 22s
Overall bit rate : 4 779 Kbps
Encoded date : UTC 2013-09-28 18:49:20
Writing application : mkvmerge v5.5.0 ('Healer') built on Apr 24 2012 23:47:03
Writing library : libebml v1.2.3 + libmatroska v1.3.0
Video
ID : 1
Format : AVC
Format/Info : Advanced Video Codec
Format profile : High@L3.1
Format settings, CABAC : No
Format settings, ReFrames : 2 frames
Codec ID : V_MPEG4/ISO/AVC
Duration : 21mn 22s
Bit rate : 3 916 Kbps
Width : 1 276 pixels
Height : 720 pixels
Display aspect ratio : 16:9
Frame rate mode : Constant
Frame rate : 23.976 fps
Color space : YUV
Chroma subsampling : 4:2:0
Bit depth : 8 bits
Scan type : Progressive
Bits/(Pixel*Frame) : 0.178
Stream size : 599 MiB (82%)
Language : English
Default : Yes
Forced : No
Color primaries : BT.709
Transfer characteristics : BT.709
Matrix coefficients : BT.709
Audio #1
ID : 2
Format : AC-3
Format/Info : Audio Coding 3
Mode extension : CM (complete main)
Format settings, Endianness : Big
Codec ID : A_AC3
Duration : 21mn 22s
Bit rate mode : Constant
Bit rate : 384 Kbps
Channel(s) : 6 channels
Channel positions : Front: L C R, Side: L R, LFE
Sampling rate : 48.0 KHz
Bit depth : 16 bits
Compression mode : Lossy
Stream size : 58.7 MiB (8%)
Language : Russian
Default : Yes
Forced : No
Audio #2
ID : 3
Format : AC-3
Format/Info : Audio Coding 3
Mode extension : CM (complete main)
Format settings, Endianness : Big
Codec ID : A_AC3
Duration : 21mn 22s
Bit rate mode : Constant
Bit rate : 384 Kbps
Channel(s) : 6 channels
Channel positions : Front: L C R, Side: L R, LFE
Sampling rate : 48.0 KHz
Bit depth : 16 bits
Compression mode : Lossy
Stream size : 58.7 MiB (8%)
Language : English
Default : No
Forced : No
Внимание! Раздача ведётся путём добавления новых серий; при каждом добавлении создётся новый торрент. Чтобы начать докачку новой серии, пользователям необходимо сделать следующее:
(1) остановить скачивание,
(2) удалить старый торрент у себя из клиента (старые серии удалять не надо),
(3) скачать новый торрент и запустить его у себя в клиенте вместо старого, при этом указать клиенту путь в старую папку куда и должно происходить скачивание новых серий.
Ваш клиент при этом должен произвести хеширование (проверку) старой папки (если не производит сам - помогите ему сделать это), и будет докачивать только те серии которых у вас ещё нет. Старые серии при этом не удаляются, а продолжают раздаваться!
Eсли вы уже удалили старые серии, то предотвратить повторную закачку старых серий можно, отжав галочку в соответсвующих местах при запуске нового торрента. По возможности, желательно не удалять старые серии как можно дольше чтобы релизёр не столько продолжал раздавать старые серии, а смог сконцентрироваться на новых.



Скачать Два.с.половиной.человека.Two.and.a.Half.Men.(11х01-20.из.24).(Ли.Аронсон.Чак.Лорри).[2013.комедия.WEB-DL].[720p].[VO.(T.Rec.Pro)]+[Original].torrent без регистрации
Золото ЗОЛОТАЯ РАЗДАЧА! СКАЧАННОЕ НЕ ЗАСЧИТЫВАЕТСЯ! Золото
Дата: Зарегистрирован   [ Тип: внутренний ] Как тут cкачать?
MAGNET ссылка
MAGNET ссылка


Скачать .torrent

75 KB

Статус: проверено DHT
Скачан: торрент - 104 раз, раздача полностью - 0 раз
Размер: 14,51 GB
Оценка:  - (Голосов: 0)
Поблагодарили: 0
Поделиться ссылкой на эту раздачу с друзьями:
В контактеFacebookОдноклассникиTwitterLivejournalМой МирLiveinternet
 

 
Показать сообщения:    


Вы не можете начинать темы
Вы не можете отвечать на сообщения
Вы не можете редактировать свои сообщения
Вы не можете удалять свои сообщения
Вы не можете голосовать в опросах
Вы не можете прикреплять файлы к сообщениям
Вы можете скачивать файлы