Loading...
Error

Скачать Обнаженные души / Naked Souls (Линдон Чаббак) [1996, фантастика, триллер, DVDRip] [Полная версия] [AVO (Андрей Гаврилов)] торрент без регистрации

 
Статистика раздачи
Размер:  1,44 GB   |    Скачан:  167 раз
Сидов:  1  [  0 KB/s  ]  
 
Автор Сообщение

Marsianka

[] 

Обнаженные души / Naked Souls / Полная версия
Страна: США
Жанр: фантастика, триллер
Год выпуска: 1996
Продолжительность: 01:30:31
Перевод: Авторский (одноголосый закадровый) - Андрей Гаврилов
Cубтитры: нет
Режиссер: Линдон Чаббак / Lyndon Chubbuck
В ролях: Брайан Краузе, Памела Андерсон, Дэвид Уорнер, Дин Стокуэлл, Клэйтон Ронер, Жустина Вэйл, Виктор Тэлмадж, Элизабет Лоу, Дерил Кэрролл, Пэт Милликано
Описание: Бритт молодая художница с роскошной внешностью, сражающей наповал всех мужчин. Но она любит лишь Эдварда, учёного, проводящего компьютерные эксперименты с воспоминаниями убийц.
Во время своих изысканий Эдвард знакомится со старым больным учёным Эвереттом, работающем с зельем шаманов, позволяющим «жить после смерти». И во время демонстрации колдовских свойств этого снадобья, происходит «переселение душ» Эверетта и Эдварда. Эдвард, в котором душа Эверетта, обнаруживает, что стал вести себя так, как будто в него вселился жуткий монстр.
Такой «новый» Эдвард совершенно не нравится Бритт. Эверетт приходит к выводу, что в процессе «переселения душ» из-за экспериментов с «компьютеризацией» памяти убийц эти воспоминания трансформировались в подсознание Эдварда. И Бритт приходится искать способ вернуть, пока не поздно, всё на свои места.

Релиз выложен по просьбе ale_x2008
За синхронизацию, ремастирование и наложение дорожки с переводом Андрея Гаврилова при помощи Adobe Audition, Sony Vegas и VirtualDubMod благодарим - ale_x2008
За активное участие благодарим - DeASS
Видеоряд с СГ
Примечание: Это самая полная версия фильма, поэтому присутствующие откровенные эротические сцены, к большому сожалению фанатов Памелы Андерсон оказались без перевода.

Качество видео: DVDRip
Формат видео: AVI
Видео: XviD MPEG-4, 720x544 (1.32:1), 23.976 fps, 2075 kbps avg, 0.22 bit/pixel
Аудио: AC3 Dolby Digital, 48000Hz, 2/0 (L,R) ch (stereo), 192.00 kbps avg
Сэмпл
Общее
Полное имя : D:\Naked Souls (Обнаженные души) Gavrilov.avi
Формат : AVI
Формат/Информация : Audio Video Interleave
Размер файла : 1,44 Гбайт
Продолжительность : 1 ч. 30 м.
Общий поток : 2277 Кбит/сек
Программа кодирования : VirtualDubMod 1.5.10.3 (build 2550/release)
Библиотека кодирования : VirtualDubMod build 2550/release
Видео
Идентификатор : 0
Формат : MPEG-4 Visual
Профиль формата : Advanced Simple@L5
Параметр BVOP формата : 1
Параметр QPel формата : Нет
Параметр GMC формата : Без точки перехода
Параметр матрицы формата : Выборочная
Идентификатор кодека : XVID
Идентификатор кодека/Подсказка : XviD
Продолжительность : 1 ч. 30 м.
Битрейт : 2076 Кбит/сек
Ширина : 720 пикселей
Высота : 544 пикселя
Соотношение сторон : 4:3
Частота кадров : 23,976 кадра/сек
Цветовое пространство : YUV
Субдискретизация насыщенности : 4:2:0
Битовая глубина : 8 бит
Тип развёртки : Прогрессивная
Метод сжатия : С потерями
Бит/(Пиксели*Кадры) : 0.221
Размер потока : 1,31 Гбайт (91%)
Библиотека кодирования : XviD 1.2.1 (UTC 2008-12-04)
Аудио
Идентификатор : 1
Формат : AC-3
Формат/Информация : Audio Coding 3
Расширение режима : CM (complete main)
Параметр Endianness формата : Big
Идентификатор кодека : 2000
Продолжительность : 1 ч. 30 м.
Вид битрейта : Постоянный
Битрейт : 192 Кбит/сек
Каналы : 2 канала
Расположение каналов : Front: L R
Частота : 48,0 КГц
Битовая глубина : 16 бит
Метод сжатия : С потерями
Размер потока : 124 Мбайт (8%)
Выравнивание : Разделение по промежуткам
Продолжительность промежутка : 42 мс. (1,00 видеокадр)
Время предзагрузки промежутка : 500 мс.
Язык : English



Скачать Обнаженные.души.Naked.Souls.(Линдон.Чаббак).[1996.фантастика.триллер.DVDRip].[Полная.версия].[AVO.(Андрей.Гаврилов)].torrent без регистрации
Золото ЗОЛОТАЯ РАЗДАЧА! СКАЧАННОЕ НЕ ЗАСЧИТЫВАЕТСЯ! Золото
Дата: Зарегистрирован   [ Тип: внутренний ] Как тут cкачать?
MAGNET ссылка
MAGNET ссылка


Скачать .torrent

15 KB

Статус: проверено DHT
Скачан: торрент - 167 раз, раздача полностью - 23 раз
Размер: 1,44 GB
Оценка:  - (Голосов: 0)
Поблагодарили: 1
Поделиться ссылкой на эту раздачу с друзьями:
В контактеFacebookОдноклассникиTwitterLivejournalМой МирLiveinternet
 

 
Показать сообщения:    


Вы не можете начинать темы
Вы не можете отвечать на сообщения
Вы не можете редактировать свои сообщения
Вы не можете удалять свои сообщения
Вы не можете голосовать в опросах
Вы не можете прикреплять файлы к сообщениям
Вы можете скачивать файлы