Loading...
Error

13- / The 13th Warrior ( , ) [1999, , , , , , , BDRip] [Dub ()] + [MVO ()]

 
1,46 GB   |    :  145
1  [  0 KB/s  ]  
 

Marsianka

[] 

13- / The 13th Warrior

: 1999
: / Touchstone Pictures
: , , , , ,
: 01:42:47
(1): ( )

(2): ( )
C:
:
/ John McTiernan, / Michael Crichton
:
(Ahmed Ibn Fahdlan), (Melchisidek), (Buliwyf), (Herger - Joyous), (Edgtho - Silent), (Roneth), (Ragnar - Dour), (Helfdane - Fat), (Rethel - Archer)
:
, , , . , .
, . , , , , , , .

| IMDB | |


: BDRip []
: AVI
: 720x304 (2.37:1), 23.976 fps, XviD build 73 ~1636 kbps avg, 0.31 bit/pixel
#1: 48 kHz, AC3 Dolby Digital, 2/0 (L,R) ch, ~192.00 kbps avg (DUB)
#2: 48 kHz, AC3 Dolby Digital, 2/0 (L,R) ch, ~192.00 kbps avg (MVO)

:

General
Complete name : D:\13_Voin_1999_BDRip_by_Dalemake.avi
Format : AVI
Format/Info : Audio Video Interleave
File size : 1.46 GiB
Duration : 1h 42mn
Overall bit rate : 2 035 Kbps
Writing application : VirtualDubMod 1.5.10.3 | www.virtualdub-fr.org || (build 2550/release)
Writing library : VirtualDubMod build 2550/release
Video
ID : 0
Format : MPEG-4 Visual
Format profile : Advanced Simple@L5
Format settings, BVOP : 1
Format settings, QPel : No
Format settings, GMC : No warppoints
Format settings, Matrix : Custom
Codec ID : XVID
Codec ID/Hint : XviD
Duration : 1h 42mn
Bit rate : 1 637 Kbps
Width : 720 pixels
Height : 304 pixels
Display aspect ratio : 2.35:1
Frame rate : 23.976 fps
Color space : YUV
Chroma subsampling : 4:2:0
Bit depth : 8 bits
Scan type : Progressive
Compression mode : Lossy
Bits/(Pixel*Frame) : 0.312
Stream size : 1.18 GiB (80%)
Writing library : XviD 73
Audio #1
ID : 1
Format : AC-3
Format/Info : Audio Coding 3
Mode extension : CM (complete main)
Format settings, Endianness : Big
Codec ID : 2000
Duration : 1h 42mn
Bit rate mode : Constant
Bit rate : 192 Kbps
Channel(s) : 2 channels
Channel positions : Front: L R
Sampling rate : 48.0 KHz
Bit depth : 16 bits
Compression mode : Lossy
Stream size : 141 MiB (9%)
Alignment : Split accross interleaves
Interleave, duration : 42 ms (1.00 video frame)
Interleave, preload duration : 500 ms
Audio #2
ID : 2
Format : AC-3
Format/Info : Audio Coding 3
Mode extension : CM (complete main)
Format settings, Endianness : Big
Codec ID : 2000
Duration : 1h 42mn
Bit rate mode : Constant
Bit rate : 192 Kbps
Channel(s) : 2 channels
Channel positions : Front: L R
Sampling rate : 48.0 KHz
Bit depth : 16 bits
Compression mode : Lossy
Stream size : 141 MiB (9%)
Alignment : Split accross interleaves
Interleave, duration : 42 ms (1.00 video frame)
Interleave, preload duration : 500 ms



13-..The.13th.Warrior.(...).[1999.......BDRip].[Dub.()].+.[MVO.()].torrent
  ! ! 
:   [ : ] c?
MAGNET
MAGNET


.torrent

15 KB

: DHT
: - 145 , - 233
: 1,46 GB
5 (: 1)
: 2
:
 FacebookTwitterLivejournal Liveinternet
 

 
: