Loading...
Error

Скачать Пропавшие миллионы / Этот грязный негодяй Шейм / A Low Down Dirty Shame (Кинен Айвори Уэйанс) [1994, комедия, боевик, криминал, WEB-DLRip] [AVOх2 (Володарский, Кашкин)] торрент без регистрации

 
Статистика раздачи
Размер:  1,47 GB   |    Скачан:  106 раз
Сидов:  1  [  0 KB/s  ]  
 
Автор Сообщение

Marsianka

[] 

Пропавшие миллионы / Этот грязный негодяй Шейм / A Low Down Dirty Shame
«He's armed and dangerously funny»

Страна: США
Жанр: Комедия, боевик, криминал
Год выпуска: 1994
Продолжительность: 01:40:31
Перевод 1: Авторский (одноголосый закадровый) [Леонид Володарский]
Перевод 2: Авторский (одноголосый закадровый) [Александр Кашкин (Первомайский)]
Cубтитры: нет
Режиссер: Кинен Айвори Уэйанс /Keenen Ivory Wayans
В ролях: Кинен Айвори Уайанс, Чарльз С. Даттон, Джада Пинкетт Смит, Салли Ричардсон-Уитфилд, Эндрю Дивофф, Коруин Хоукинс, Гэри Сервантес, Грегори Сьерра, Ким Уайанс, Эндрю Шайфер
Описание: Бывший полицейский Шэйм занимается опасными частными расследованиями, от ведения которых отказываются все прочие. Он — всегда на линии огня и на дистанции удара, однако ему удается выходить живым из любых переделок. Этими его качествами решил воспользоваться его старый друг, предложивший Шэйму найти пропавшие миллионы. И все прошлые переделки оказываются детской забавой в сравнении с этим новым делом…
Sample | IMDB | КиноПоиск
Тип релиза: WEB-DLRip [исх. WEB-DL 720p]
Формат видео: AVI
Видео: 704x368 (1.91:1), 23.976 fps, XviD build 50, 1691 kbps avg, 0.27 bit/pixel
Аудио 1: 48 kHz, AC3 Dolby Digital, 2/0 (L,R) ch, 192.00 kbps avg [Russian_AVO]
Аудио 2: 48 kHz, AC3 Dolby Digital, 2/0 (L,R) ch, 192.00 kbps avg [Russian_AVO]


http://screenshotcomparison.com/comparison/68258/picture:0
Переводы одинаковые
General
Complete name : D:\Мои релизы\A Low Down Dirty Shame_WEB-DLRip_RG_All_Films.avi
Format : AVI
Format/Info : Audio Video Interleave
File size : 1.47 GiB
Duration : 1h 40mn
Overall bit rate : 2 090 Kbps
Writing application : VirtualDubMod 1.6.0.0 SURROUND (build 2560/release)
Writing library : VirtualDubMod build 2560/release
Video
ID : 0
Format : MPEG-4 Visual
Format profile : Advanced Simple@L5
Format settings, BVOP : Yes
Format settings, QPel : No
Format settings, GMC : No warppoints
Format settings, Matrix : Custom
Codec ID : XVID
Codec ID/Hint : XviD
Duration : 1h 40mn
Bit rate : 1 692 Kbps
Width : 704 pixels
Height : 368 pixels
Display aspect ratio : 1.913
Frame rate : 23.976 fps
Color space : YUV
Chroma subsampling : 4:2:0
Bit depth : 8 bits
Scan type : Progressive
Compression mode : Lossy
Bits/(Pixel*Frame) : 0.272
Stream size : 1.19 GiB (81%)
Writing library : XviD 1.2.1 (UTC 2008-12-04)
Audio #1
ID : 1
Format : AC-3
Format/Info : Audio Coding 3
Mode extension : CM (complete main)
Codec ID : 2000
Duration : 1h 40mn
Bit rate mode : Constant
Bit rate : 192 Kbps
Channel(s) : 2 channels
Channel positions : Front: L R
Sampling rate : 48.0 KHz
Bit depth : 16 bits
Compression mode : Lossy
Stream size : 138 MiB (9%)
Alignment : Split accross interleaves
Interleave, duration : 42 ms (1.00 video frame)
Interleave, preload duration : 500 ms
Audio #2
ID : 2
Format : AC-3
Format/Info : Audio Coding 3
Mode extension : CM (complete main)
Codec ID : 2000
Duration : 1h 40mn
Bit rate mode : Constant
Bit rate : 192 Kbps
Channel(s) : 2 channels
Channel positions : Front: L R
Sampling rate : 48.0 KHz
Bit depth : 16 bits
Compression mode : Lossy
Stream size : 138 MiB (9%)
Alignment : Split accross interleaves
Interleave, duration : 42 ms (1.00 video frame)
Interleave, preload duration : 500 ms



Скачать Пропавшие.миллионы.Этот.грязный.негодяй.Шейм.A.Low.Down.Dirty.Shame.(Кинен.Айвори.Уэйанс).[1994.комедия.боевик.криминал.WEB-DLRip].[AVOх2.(Володарский.Кашкин)].torrent без регистрации
Золото ЗОЛОТАЯ РАЗДАЧА! СКАЧАННОЕ НЕ ЗАСЧИТЫВАЕТСЯ! Золото
Дата: Зарегистрирован   [ Тип: внутренний ] Как тут cкачать?
MAGNET ссылка
MAGNET ссылка


Скачать .torrent

15 KB

Статус: проверено DHT
Скачан: торрент - 106 раз, раздача полностью - 1 раз
Размер: 1,47 GB
Оценка:  - (Голосов: 0)
Поблагодарили: 0
Поделиться ссылкой на эту раздачу с друзьями:
В контактеFacebookОдноклассникиTwitterLivejournalМой МирLiveinternet
 

 
Показать сообщения:    


Вы не можете начинать темы
Вы не можете отвечать на сообщения
Вы не можете редактировать свои сообщения
Вы не можете удалять свои сообщения
Вы не можете голосовать в опросах
Вы не можете прикреплять файлы к сообщениям
Вы можете скачивать файлы