Loading...
Error

Скачать Джуманджи / Jumanji (Джо Джонстон) [1995, фэнтези, триллер, приключения, семейный, BDRip] [Dub] торрент без регистрации

 
Статистика раздачи
Размер:  1,46 GB   |    Скачан:  146 раз
Сидов:  1  [  0 KB/s  ]  
 
Автор Сообщение

Marsianka

[] 

Джуманджи / Jumanji

Страна: США
Жанр: фэнтези, триллер, приключения, семейный
Год выпуска: 1995
Продолжительность: 01:44:06
Перевод: Профессиональный (дублированный)
Cубтитры: нет
Режиссер: Джо Джонстон / Joe Johnston
В ролях: Робин Уильямс, Кирстен Данст, Дэвид Алан Грир, Адам Хэнн-Берд, Бонни Хант, Джонатан Хайд, Биби Ньювирт, Брэдли Пирс, Джеймс Хэнди, Патришия Кларксон, Лаура Белл Банди, Алекс Барнс, Алисия Горансон
Описание: Случайно обнаружив настольную игру со странным названием «Джуманджи» Алан Пэрриш, не зная о ее сверхъестественных свойствах, на глазах изумленной подружки переносится в джунгли.
Долгие годы он находится в потустороннем мире, до тех пор, пока двое ни о чем не подозревающих подростков не находят игру и не снимают волшебные чары, освобождая Алана из многолетнего плена.
Теперь им предстоит решить нелегкую задачу — победить могущественную силу игры, пройти немыслимые препятствия и одержать победу над силами Магии!



Качество видео: BDRip | HPotter/1080p BD-Remux
Формат видео: AVI
Видео: 720x384 (1.88:1), 23.976 fps, XviD build 73 ~1543 kbps avg, 0.23 bit/pixel
Аудио: 48 kHz, AC3 Dolby Digital, 3/2 (L,C,R,l,r) + LFE ch, ~448 kbps
Общее
Полное имя : C:\Documents and Settings\Пользователь\Рабочий стол\Торрентс.ру\Jumanji.1995.BDRip.Dub_by_LBS.avi
Формат : AVI
Формат/Информация : Audio Video Interleave
Размер файла : 1,46 Гбайт
Продолжительность : 1 ч. 44 м.
Общий поток : 2001 Кбит/сек
Режиссёр : Last Boy Scout
Программа кодирования : VirtualDubMod 1.5.10.3 | www.virtualdub-fr.org || (build 2550/release)
Правообладатель : rutracker.org 24.03.2014
Примечание : BDRip Dub
Видео
Идентификатор : 0
Формат : MPEG-4 Visual
Профиль формата : Advanced Simple@L5
Параметр BVOP формата : 1
Параметр QPel формата : Нет
Параметр GMC формата : Без точки перехода
Параметр матрицы формата : Выборочная
Идентификатор кодека : XVID
Идентификатор кодека/Подсказка : XviD
Продолжительность : 1 ч. 44 м.
Битрейт : 1544 Кбит/сек
Ширина : 720 пикселей
Высота : 384 пикселя
Соотношение сторон : 1,85:1
Частота кадров : 23,976 кадра/сек
Цветовое пространство : YUV
Субдискретизация насыщенности : 4:2:0
Битовая глубина : 8 бит
Тип развёртки : Прогрессивная
Метод сжатия : С потерями
Бит/(Пиксели*Кадры) : 0.233
Размер потока : 1,12 Гбайт (77%)
Библиотека кодирования : XviD 73
Аудио
Идентификатор : 1
Формат : AC-3
Формат/Информация : Audio Coding 3
Расширение режима : CM (complete main)
Параметр Endianness формата : Big
Идентификатор кодека : 2000
Продолжительность : 1 ч. 44 м.
Вид битрейта : Постоянный
Битрейт : 448 Кбит/сек
Каналы : 6 каналов
Расположение каналов : Front: L C R, Side: L R, LFE
Частота : 48,0 КГц
Битовая глубина : 16 бит
Метод сжатия : С потерями
Размер потока : 334 Мбайт (22%)
Выравнивание : Разделение по промежуткам
Продолжительность промежутка : 42 мс. (1,00 видеокадр)
Время предзагрузки промежутка : 500 мс.



Скачать Джуманджи.Jumanji.(Джо.Джонстон).[1995.фэнтези.триллер.приключения.семейный.BDRip].[Dub].torrent без регистрации
Золото ЗОЛОТАЯ РАЗДАЧА! СКАЧАННОЕ НЕ ЗАСЧИТЫВАЕТСЯ! Золото
Дата: Зарегистрирован   [ Тип: внутренний ] Как тут cкачать?
MAGNET ссылка
MAGNET ссылка


Скачать .torrent

15 KB

Статус: проверено DHT
Скачан: торрент - 146 раз, раздача полностью - 98 раз
Размер: 1,46 GB
Оценка:  5 (Голосов: 1)
Поблагодарили: 3
Поделиться ссылкой на эту раздачу с друзьями:
В контактеFacebookОдноклассникиTwitterLivejournalМой МирLiveinternet
 

 
Показать сообщения:    


Вы не можете начинать темы
Вы не можете отвечать на сообщения
Вы не можете редактировать свои сообщения
Вы не можете удалять свои сообщения
Вы не можете голосовать в опросах
Вы не можете прикреплять файлы к сообщениям
Вы можете скачивать файлы