Loading...
Error

Скачать Золотые годы / Golden Years (Аллен Култер, Кеннет Финк, Митчелл Галин) [1991, ужасы, фантастика, триллер, драма, DVDRip-AVC] [AVO(Сергей Визгунов)]+[Оригинал] торрент без регистрации

 
Статистика раздачи
Размер:  2,89 GB   |    Скачан:  108 раз
Сидов:  1  [  0 KB/s  ]  
 
Автор Сообщение

Marsianka

[] 

Информация о фильме
Название: Золотые годы
Оригинальное название: Golden Years
Год выхода: 1991
Жанр: ужасы, фантастика, триллер, драма
Режиссер: Аллен Култер, Кеннет Финк, Митчелл Галин
В ролях: Билл Рэймонд, Р. Д. Колл, Дж. Майкл Хантер, Джо Инскоу, Джон Ротмэн, Кит Шарабайка, Нормэн Крэйг Максуэлл, Ричард Уайтинг, Стивен Рут, Фелисити Хаффмэн, Фил Ленковски, Фрэнсис Стернхэйген, Эд Лоутер

По роману Стивена Кинга

О фильме:
После аварии в сверхсекретном научном военном центре начато расследование обстоятельств взрыва. А работала лаборатория, где был взрыв, над процессом регенерации. Это открытие должно произвести революцию в медицине - оторвало человеку ногу, а через несколько часов у него выросла новая... Выяснилось, что при взрыве, те, кто попал под воздействие таинственного облучения, стали молодеть. Но вдруг всех, кто имел отношение к этой аварии, стали убивать...



Страна: США
Студия: Laurel Productions, Laurel-King Inc
Продолжительность: 02:08:57 + 01:47:09
Перевод: Авторский (одноголосый) [Сергей Визгунов]

Файл
Кодек: AVC
Качество: DVDRip-AVC
Видео: 632x472, 1232 kbps, 23, 976 fps, 0.172 Bits/(Pixel*Frame) / 632x472, 1535 kbps, 23, 976 fps, 0.215 Bits/(Pixel*Frame)
AC3, 48 kHz, 2 ch, 192 kbps - Russian (авторский,одноголосый)
AC3, 48 kHz, 2 ch, 192 kbps - English (original)
Субтитры: Нет
Релиз от:

Автор рипа: _Bathory_

General
Unique ID : 206240610237611569928096097952784922615 (0x9B287F27C419C4DB8E8704955A8337F7)
Complete name : C:Users_VideosGolden_Years_1991_DVDRip_by_BathoryGolden_Years.1991.DVDRip_by_Bathory.CD1.mkv
Format : Matroska
Format version : Version 2
File size : 1.46 GiB
Duration : 2h 8mn
Overall bit rate : 1 618 Kbps
Encoded date : UTC 2014-05-08 22:38:00
Writing application : mkvmerge v6.5.0 ('Isn't she lovely') built on Oct 20 2013 12:50:05
Writing library : libebml v1.3.0 + libmatroska v1.4.1

Video
ID : 1
Format : AVC
Format/Info : Advanced Video Codec
Format profile : High@L4.1
Format settings, CABAC : Yes
Format settings, ReFrames : 12 frames
Codec ID : V_MPEG4/ISO/AVC
Duration : 2h 8mn
Bit rate : 1 232 Kbps
Width : 632 pixels
Height : 472 pixels
Display aspect ratio : 4:3
Frame rate mode : Constant
Frame rate : 23.976 fps
Color space : YUV
Chroma subsampling : 4:2:0
Bit depth : 8 bits
Scan type : Progressive
Bits/(Pixel*Frame) : 0.172
Stream size : 1.08 GiB (74%)
Writing library : x264 core 138 r2358 9e941d1
Encoding settings : cabac=1 / ref=12 / deblock=1:-2:-2 / analyse=0x3:0x133 / me=umh / subme=11 / psy=1 / psy_rd=1.00:0.18 / mixed_ref=1 / me_range=24 / chroma_me=1 / trellis=2 / 8x8dct=1 / cqm=0 / deadzone=21,11 / fast_pskip=0 / chroma_qp_offset=-3 / threads=6 / lookahead_threads=1 / sliced_threads=0 / nr=0 / decimate=1 / interlaced=0 / bluray_compat=0 / constrained_intra=0 / bframes=16 / b_pyramid=2 / b_adapt=2 / b_bias=0 / direct=3 / weightb=1 / open_gop=0 / weightp=2 / keyint=240 / keyint_min=23 / scenecut=40 / intra_refresh=0 / rc_lookahead=60 / rc=2pass / mbtree=1 / bitrate=1232 / ratetol=1.0 / qcomp=0.60 / qpmin=0 / qpmax=69 / qpstep=4 / cplxblur=20.0 / qblur=0.5 / vbv_maxrate=62500 / vbv_bufsize=78125 / nal_hrd=none / ip_ratio=1.40 / aq=1:0.90
Default : Yes
Forced : No

Audio #1
ID : 2
Format : AC-3
Format/Info : Audio Coding 3
Mode extension : CM (complete main)
Format settings, Endianness : Big
Codec ID : A_AC3
Duration : 2h 8mn
Bit rate mode : Constant
Bit rate : 192 Kbps
Channel(s) : 2 channels
Channel positions : Front: L R
Sampling rate : 48.0 KHz
Bit depth : 16 bits
Compression mode : Lossy
Stream size : 177 MiB (12%)
Default : Yes
Forced : No

Audio #2
ID : 3
Format : AC-3
Format/Info : Audio Coding 3
Mode extension : CM (complete main)
Format settings, Endianness : Big
Codec ID : A_AC3
Duration : 2h 8mn
Bit rate mode : Constant
Bit rate : 192 Kbps
Channel(s) : 2 channels
Channel positions : Front: L R
Sampling rate : 48.0 KHz
Bit depth : 16 bits
Compression mode : Lossy
Stream size : 177 MiB (12%)
Default : No
Forced : No

General
Unique ID : 214798206314080882629638916310105403127 (0xA198A137907D0A93A73D062564FD2EF7)
Complete name : C:Users_VideosGolden_Years_1991_DVDRip_by_BathoryGolden_Years.1991.DVDRip_by_Bathory.CD2.mkv
Format : Matroska
Format version : Version 2
File size : 1.44 GiB
Duration : 1h 47mn
Overall bit rate : 1 921 Kbps
Encoded date : UTC 2014-05-09 16:54:23
Writing application : mkvmerge v6.5.0 ('Isn't she lovely') built on Oct 20 2013 12:50:05
Writing library : libebml v1.3.0 + libmatroska v1.4.1

Video
ID : 1
Format : AVC
Format/Info : Advanced Video Codec
Format profile : High@L4.1
Format settings, CABAC : Yes
Format settings, ReFrames : 12 frames
Codec ID : V_MPEG4/ISO/AVC
Duration : 1h 47mn
Bit rate : 1 535 Kbps
Width : 632 pixels
Height : 472 pixels
Display aspect ratio : 4:3
Frame rate mode : Constant
Frame rate : 23.976 fps
Color space : YUV
Chroma subsampling : 4:2:0
Bit depth : 8 bits
Scan type : Progressive
Bits/(Pixel*Frame) : 0.215
Stream size : 1.12 GiB (78%)
Writing library : x264 core 138 r2358 9e941d1
Encoding settings : cabac=1 / ref=12 / deblock=1:-2:-2 / analyse=0x3:0x133 / me=umh / subme=11 / psy=1 / psy_rd=1.00:0.18 / mixed_ref=1 / me_range=24 / chroma_me=1 / trellis=2 / 8x8dct=1 / cqm=0 / deadzone=21,11 / fast_pskip=0 / chroma_qp_offset=-3 / threads=6 / lookahead_threads=1 / sliced_threads=0 / nr=0 / decimate=1 / interlaced=0 / bluray_compat=0 / constrained_intra=0 / bframes=16 / b_pyramid=2 / b_adapt=2 / b_bias=0 / direct=3 / weightb=1 / open_gop=0 / weightp=2 / keyint=240 / keyint_min=23 / scenecut=40 / intra_refresh=0 / rc_lookahead=60 / rc=2pass / mbtree=1 / bitrate=1535 / ratetol=1.0 / qcomp=0.60 / qpmin=0 / qpmax=69 / qpstep=4 / cplxblur=20.0 / qblur=0.5 / vbv_maxrate=62500 / vbv_bufsize=78125 / nal_hrd=none / ip_ratio=1.40 / aq=1:0.90
Default : Yes
Forced : No

Audio #1
ID : 2
Format : AC-3
Format/Info : Audio Coding 3
Mode extension : CM (complete main)
Format settings, Endianness : Big
Codec ID : A_AC3
Duration : 1h 47mn
Bit rate mode : Constant
Bit rate : 192 Kbps
Channel(s) : 2 channels
Channel positions : Front: L R
Sampling rate : 48.0 KHz
Bit depth : 16 bits
Compression mode : Lossy
Stream size : 147 MiB (10%)
Default : Yes
Forced : No

Audio #2
ID : 3
Format : AC-3
Format/Info : Audio Coding 3
Mode extension : CM (complete main)
Format settings, Endianness : Big
Codec ID : A_AC3
Duration : 1h 47mn
Bit rate mode : Constant
Bit rate : 192 Kbps
Channel(s) : 2 channels
Channel positions : Front: L R
Sampling rate : 48.0 KHz
Bit depth : 16 bits
Compression mode : Lossy
Stream size : 147 MiB (10%)
Default : No
Forced : No



Скачать Золотые.годы.Golden.Years.(Аллен.Култер.Кеннет.Финк.Митчелл.Галин).[1991.ужасы.фантастика.триллер.драма.DVDRip-AVC].[AVO(Сергей.Визгунов)]+[Оригинал].torrent без регистрации
Золото ЗОЛОТАЯ РАЗДАЧА! СКАЧАННОЕ НЕ ЗАСЧИТЫВАЕТСЯ! Золото
Дата: Зарегистрирован   [ Тип: внутренний ] Как тут cкачать?
MAGNET ссылка
MAGNET ссылка


Скачать .torrent

15 KB

Статус: проверено DHT
Скачан: торрент - 108 раз, раздача полностью - 4 раз
Размер: 2,89 GB
Оценка:  - (Голосов: 0)
Поблагодарили: 1
Поделиться ссылкой на эту раздачу с друзьями:
В контактеFacebookОдноклассникиTwitterLivejournalМой МирLiveinternet
 

 
Показать сообщения:    


Вы не можете начинать темы
Вы не можете отвечать на сообщения
Вы не можете редактировать свои сообщения
Вы не можете удалять свои сообщения
Вы не можете голосовать в опросах
Вы не можете прикреплять файлы к сообщениям
Вы можете скачивать файлы