Loading...
Error

Скачать Совращение Крис Миллер / La Corrupcion de Chris Miller (Хуан Антонио Бардем) [1973, триллер, драма, детектив, VHSRip] [Sub (Rus)] + [Original (Spa)] торрент без регистрации

 
Статистика раздачи
Размер:  700 MB   |    Скачан:  99 раз
Сидов:  1  [  0 KB/s  ]  
 
Автор Сообщение

Marsianka

[] 

Совращение Крис Миллер / La Corrupción de Chris Miller
Страна: Испания
Жанр: триллер, драма, детектив
Год выпуска: 1973
Продолжительность: 1:45:39
Перевод: Субтитры (Pinhead)
Cубтитры: русские
Оригинальная аудиодорожка: испанский
Режиссер: Хуан Антонио Бардем / Juan Antonio Bardem
В ролях: Джин Сиберг, Марисоль, Бэрри Стоукс, Перла Кристал, Руди Габель, Жерар Тиши, Алисия Альтабелла, Мариано Видаль Молина, Мария Бардем, Хуан Антонио Бардем, Мигель Бардем, Густаво Ре, Карл Рэпп, Гойо Лебреро, Антонио Парра
Описание: В стоящем вдали от жилых мест большом поместье живут две женщины: мачеха и падчерица. Однажды, после ненастной и дождливой ночи, старшая из них обнаруживает в сарае беззаботно спящего молодого человека, который после нескольких минут общения казался ей уже хорошим старым знакомым. Несмотря на сопротивление падчерицы, которая не выносит присутствия мужчин после давнего изнасилования, юноша остается в их доме на несколько дней. Но в это время в окрестностях одно за другим происходят жестокие убийства, в которых подозревается молодой человек с гитарой. Когда об этом становится известно в поместье, женщины приходят в ужас.



Качество видео: VHSRip
Формат видео: AVI
Видео: 512x304 (1.68:1), 25 fps, XviD build 50 ~804 kbps avg, 0.21 bit/pixel
Аудио: 44.100 kHz, MPEG Layer 3, 2 ch, ~112.00 kbps avg
Формат субтитров: softsub (SRT)
General
Complete name : ...\La Corrupcion de Chris Miller.avi
Format : AVI
Format/Info : Audio Video Interleave
File size : 700 MiB
Duration : 1h 45mn
Overall bit rate : 927 Kbps
Writing application : VirtualDubMod 1.5.10.3 | www.virtualdub-fr.org || (build 2550/release)
Writing library : VirtualDubMod build 2550/release
Video
ID : 0
Format : MPEG-4 Visual
Format profile : Advanced Simple@L5
Format settings, BVOP : 2
Format settings, QPel : No
Format settings, GMC : No warppoints
Format settings, Matrix : Default (H.263)
Codec ID : XVID
Codec ID/Hint : XviD
Duration : 1h 45mn
Bit rate : 805 Kbps
Width : 512 pixels
Height : 304 pixels
Display aspect ratio : 1.684
Frame rate : 25.000 fps
Color space : YUV
Chroma subsampling : 4:2:0
Bit depth : 8 bits
Scan type : Progressive
Compression mode : Lossy
Bits/(Pixel*Frame) : 0.207
Stream size : 608 MiB (87%)
Writing library : XviD 1.2.1 (UTC 2008-12-04)
Audio
ID : 1
Format : MPEG Audio
Format version : Version 1
Format profile : Layer 3
Codec ID : 55
Codec ID/Hint : MP3
Duration : 1h 45mn
Bit rate mode : Constant
Bit rate : 112 Kbps
Channel(s) : 2 channels
Sampling rate : 44.1 KHz
Compression mode : Lossy
Stream size : 84.6 MiB (12%)
Alignment : Split accross interleaves
Interleave, duration : 40 ms (1.00 video frame)
Interleave, preload duration : 500 ms
1
00:02:13,409 --> 00:02:15,447
Где ты, черт возьми, прячешься?
2
00:02:15,948 --> 00:02:18,969
Если ты думаешь, что я буду за тобой
бегать - ты сильно ошибаешься.
3
00:02:23,838 --> 00:02:28,010
Ты видел телеграмму?
Завтра возвращается мой муж.
4
00:02:28,011 --> 00:02:30,932
Только представь, как я обрадовалась.
5
00:02:32,740 --> 00:02:35,366
Я приютила тебя, а ты...
даже не хочешь попрощаться.
6
00:02:36,504 --> 00:02:39,992
Забирай свои вещи и уходи.
7
00:02:40,866 --> 00:02:43,473
Идиот, что ты делаешь?
8
00:02:46,861 --> 00:02:48,724
Где ты нашел этот костюм?
9
00:02:48,725 --> 00:02:51,526
Ты опять копался в моем шкафу?
10
00:02:53,968 --> 00:02:57,876
Тебе нравится быть клоуном?
11
00:02:57,877 --> 00:03:00,690
Чего ты хочешь? Остаться тут навсегда?
12
00:03:03,261 --> 00:03:05,736
Ты постучался в дождливую ночь
в мою дверь,
13
00:03:05,771 --> 00:03:08,590
дрожал как собака от холода.
14
00:03:09,320 --> 00:03:13,057
Я тебя пожалела и оставила
у себя на две недели,
15
00:03:14,229 --> 00:03:16,685
но теперь всё кончено.
16
00:03:16,720 --> 00:03:21,354
Через 20 минут будет поезд,
возьми эти деньги!
17
00:03:40,045 --> 00:03:42,847
Тут не много, но ты большего и не стоишь.
18
00:03:44,842 --> 00:03:49,308
Что у тебя в рюкзаке?
А ну-ка покажи.
19
00:03:51,666 --> 00:03:54,627
Ты что, оглох?
Открой его!
20
00:06:43,641 --> 00:06:50,993
СОВРАЩЕНИЕ КРИС МИЛЛЕР



Скачать Совращение.Крис.Миллер.La.Corrupcion.de.Chris.Miller.(Хуан.Антонио.Бардем).[1973.триллер.драма.детектив.VHSRip].[Sub.(Rus)].+.[Original.(Spa)].torrent без регистрации
Золото ЗОЛОТАЯ РАЗДАЧА! СКАЧАННОЕ НЕ ЗАСЧИТЫВАЕТСЯ! Золото
Дата: Зарегистрирован   [ Тип: внутренний ] Как тут cкачать?
MAGNET ссылка
MAGNET ссылка


Скачать .torrent

14 KB

Статус: проверено DHT
Скачан: торрент - 99 раз, раздача полностью - 8 раз
Размер: 700 MB
Оценка:  - (Голосов: 0)
Поблагодарили: 0
Поделиться ссылкой на эту раздачу с друзьями:
В контактеFacebookОдноклассникиTwitterLivejournalМой МирLiveinternet
 

 
Показать сообщения:    


Вы не можете начинать темы
Вы не можете отвечать на сообщения
Вы не можете редактировать свои сообщения
Вы не можете удалять свои сообщения
Вы не можете голосовать в опросах
Вы не можете прикреплять файлы к сообщениям
Вы можете скачивать файлы