Loading...
Error

Скачать Девушка и генерал / La ragazza e il generale / The Girl and the General (Паскуале Феста Кампаниле) [1967, комедия, драма, TVRip] [VO (Алексей Яковлев)] + [Original (Eng)] торрент без регистрации

 
Статистика раздачи
Размер:  1,45 GB   |    Скачан:  109 раз

Полного источника не было: 25 минут

 
Автор Сообщение

Marsianka

[] 

Девушка и генерал / La ragazza e il generale / The Girl and the General
Страна: Италия, Франция
Жанр: комедия, драма
Год выпуска: 1967
Продолжительность: 01:39:14
Перевод: Одноголосый закадровый Алексей Яковлев
Cубтитры: нет
Режиссер: Паскуале Феста Кампаниле / Pasquale Festa Campanile
В ролях: Род Стайгер, Вирна Лизи, Умберто Орсини, Тони Гаджиа, Марко Мариани, Жак Эрлен, Валентино Макки
Описание: Молодая бедная девушка (Вирна Лизи) и солдат (Умберто Орсини) во время Первой мировой войны захватывают в плен австрийского генерала (Род Стайгер). Они собираются отвезти его итальянскому командованию в надежде получить награду в 1000 лир.



Качество видео: TVRip
Формат видео: AVI
Видео: 688x512 (1.34:1), 25 fps, XviD build 47 ~1759 kbps avg, 0.20 bit/pixel
Аудио: 44.100 kHz, MPEG Layer 3, 2 ch, ~320.00 kbps avg

Сэмпл
Format : AVI
Format/Info : Audio Video Interleave
File size : 1.45 GiB
Duration : 1h 39mn
Overall bit rate : 2 090 Kbps
Writing application : VirtualDubMod 1.5.10.2 (build 2540/release)
Writing library : VirtualDubMod build 2540/release
Video
ID : 0
Format : MPEG-4 Visual
Format profile : Advanced Simple@L5
Format settings, BVOP : 1
Format settings, QPel : No
Format settings, GMC : No warppoints
Format settings, Matrix : Default (MPEG)
Codec ID : XVID
Codec ID/Hint : XviD
Duration : 1h 39mn
Bit rate : 1 760 Kbps
Width : 688 pixels
Height : 512 pixels
Display aspect ratio : 4:3
Frame rate : 25.000 fps
Color space : YUV
Chroma subsampling : 4:2:0
Bit depth : 8 bits
Scan type : Progressive
Compression mode : Lossy
Bits/(Pixel*Frame) : 0.200
Stream size : 1.22 GiB (84%)
Writing library : XviD 1.2.0.dev47 (UTC 2006-11-01)
Audio
ID : 1
Format : MPEG Audio
Format version : Version 1
Format profile : Layer 3
Codec ID : 55
Codec ID/Hint : MP3
Duration : 1h 39mn
Bit rate mode : Constant
Bit rate : 320 Kbps
Channel(s) : 2 channels
Sampling rate : 44.1 KHz
Compression mode : Lossy
Stream size : 227 MiB (15%)
Alignment : Split accross interleaves
Interleave, duration : 40 ms (1.00 video frame)
Interleave, preload duration : 500 ms
Огромное спасибо larisa547
за рип и Алексею Яковлеву за перевод!



Скачать Девушка.и.генерал.La.ragazza.e.il.generale.The.Girl.and.the.General.(Паскуале.Феста.Кампаниле).[1967.комедия.драма.TVRip].[VO.(Алексей.Яковлев)].+.[Original.(Eng)].torrent без регистрации
Золото ЗОЛОТАЯ РАЗДАЧА! СКАЧАННОЕ НЕ ЗАСЧИТЫВАЕТСЯ! Золото
Дата: Зарегистрирован   [ Тип: внутренний ] Как тут cкачать?
MAGNET ссылка
MAGNET ссылка


Скачать .torrent

15 KB

Статус: проверено DHT
Скачан: торрент - 109 раз, раздача полностью - 3 раз
Размер: 1,45 GB
Оценка:  - (Голосов: 0)
Поблагодарили: 0
Поделиться ссылкой на эту раздачу с друзьями:
В контактеFacebookОдноклассникиTwitterLivejournalМой МирLiveinternet
 

 
Показать сообщения:    


Вы не можете начинать темы
Вы не можете отвечать на сообщения
Вы не можете редактировать свои сообщения
Вы не можете удалять свои сообщения
Вы не можете голосовать в опросах
Вы не можете прикреплять файлы к сообщениям
Вы можете скачивать файлы