Loading...
Error

/ Sorcerer ( ) [1977, , , , BDRip] [AVO ()] + [VO ()]

 
1,62 GB   |    :  105
1  [  0 KB/s  ]  
 

Marsianka

[] 

Sorcerer


: 1977
:
: , ,
: 02:01:30
: (, ) ( )
, ():
: / William Friedkin
: / Walon Green, / Georges Arnaud
: / William Friedkin, . / Bud S. Smith
: / Dick Bush, . / John M. Stephens
: / Tangerine Dream
: (Jackie Scanlon - Juan Dominguez), (Victor Manzon - Serrano), (Nilo), (Kassem - Martinez), (Corlette), (Lartigue), (Marquez), (Carlos), (Bobby Del Rios), (Spider), Rosario Almontes (Agrippa), (Billy White)
: , . . , 10 . 200 ,



MPAA: PG -
: BDRip / Sorcerer 1977 1080p Blu-ray AVC DTS-HD MA 5 1-v99 +
: AVI
: 704x400 (1.76:1), 23.976 fps, XviD build 65 ~1514 kbps avg, 0.22 bit/pixel
I: 48 kHz, AC3 Dolby Digital, 2/0 (L,R) ch, ~192 kbps (AVO)
II: 48 kHz, AC3 Dolby Digital, 2/0 (L,R) ch, ~192 kbps (VO) ()

:

General
Complete name : E:\\Sorcerer.1977.BDRip.All.Films\Sorcerer.1977.BDRip.All.Films.avi
Format : AVI
Format/Info : Audio Video Interleave
File size : 1.46 GiB
Duration : 2h 1mn
Overall bit rate : 1 716 Kbps
Movie name : Sorcerer.1977.BDRip.All.Films
Director : DIABLO93
Genre : Action/Adventure
Writing application : VirtualDubMod 1.5.10.3 | www.virtualdub-fr.org || (build 2550/release)
Original source form/Name : Movie
Copyright : Rutracker.org (R.G. All Films)
Video
ID : 0
Format : MPEG-4 Visual
Format profile : Advanced Simple@L5
Format settings, BVOP : 2
Format settings, QPel : No
Format settings, GMC : No warppoints
Format settings, Matrix : Custom
Codec ID : XVID
Codec ID/Hint : XviD
Duration : 2h 1mn
Bit rate : 1 515 Kbps
Width : 704 pixels
Height : 400 pixels
Display aspect ratio : 16:9
Frame rate : 23.976 fps
Color space : YUV
Chroma subsampling : 4:2:0
Bit depth : 8 bits
Scan type : Progressive
Compression mode : Lossy
Bits/(Pixel*Frame) : 0.224
Stream size : 1.29 GiB (88%)
Writing library : XviD 65
Audio
ID : 1
Format : AC-3
Format/Info : Audio Coding 3
Mode extension : CM (complete main)
Format settings, Endianness : Big
Codec ID : 2000
Duration : 2h 1mn
Bit rate mode : Constant
Bit rate : 192 Kbps
Channel(s) : 2 channels
Channel positions : Front: L R
Sampling rate : 48.0 KHz
Bit depth : 16 bits
Compression mode : Lossy
Stream size : 167 MiB (11%)
Alignment : Split accross interleaves
Interleave, duration : 42 ms (1.00 video frame)
Interleave, preload duration : 500 ms




.Sorcerer.(.).[1977....BDRip].[AVO.()].+.[VO.()].torrent
  ! ! 
:   [ : ] c?
MAGNET
MAGNET


.torrent

17 KB

: DHT
: - 105 , - 13
: 1,62 GB
- (: 0)
: 1
:
 FacebookTwitterLivejournal Liveinternet
 

 
: