Loading...
Error

Скачать Монах / Le moine / The Monk (Адонис Киру) [1972, готические ужасы, драма, VHSRip] [VO (Перевод ССК+)] + [Original (Eng)] торрент без регистрации

 
Статистика раздачи
Размер:  1,25 GB   |    Скачан:  108 раз
Сидов:  1  [  0 KB/s  ]  
 
Автор Сообщение

Marsianka

[] 

Монах / Le moine / The Monk
Страна: Франция, Италия, ФРГ
Жанр: готическая мистика, жуть и драма
Год выпуска: 1972
Продолжительность: 01:29:30
Перевод: Одноголосый закадровый Перевод ССК+
Cубтитры: нет
Оригинальная аудиодорожка: английский
Режиссер: Адонис Киру / Adonis Kyrou
В ролях: Франко Неро, Натали Делон, Никол Уильямсон, Надя Тиллер, Элиана Де Сантис, Аньес Капри, Дени Манюэль, Мария Машадо, Филипп Клевено, Луиза Шевалье
Описание:
Испания, средние века. Монах Амбросио (народный артист Итальянской республики Франко Неро) подвергается плотскому соблазну со стороны посланницы дьявола Матильды, внедрившейся в ряды послушников ордена под видом юного монаха. Не устояв перед пороком, Амбросио совершает целую вереницу преступлений и, в конце концов, попадает в руки инквизиции. Как известно, из её подземелий путь только один - на костёр. В последнюю секунду монах решается подписать договор с Сатаной и обретает желанную свободу... и нечто большое.
Великолепный фильм по роману английского автора 18-19 вв. Мэттью Льюиса (сценарий Луиса Бунюэля), хотя по сравнению с первоисточником добавлена (не без успеха!) сюжетная линия каннибала и педофила герцога Таламура (блистательно сыгранного Николом Уильямсоном), а также с точностью до наоборот изменён финал романа (где зло настигает неизбежное наказание). Увы, это редкое кино из разряда "потерянных жемчужин" существует пока только в формате VHSrip, так что на качество картинки не взыщите.
Всем приятного просмотра!

IMDB



Качество видео: VHSRip
Формат видео: AVI
Видео: XVID, 640 х 464, 1.379, 25.000 fps, 1736 Kbps

Сэмпл
Аудио: MP3, 44.1 KHz, 128 Kbps, 2 channels, русский
Аудио 2: MP3, 48.0 KHz, 128 Kbps, 2 channels, английский
General
Complete name : F:\РАЗДАЧИ\МОНАХ 1972\Монах\Монах 1972 ССК+.avi
Format : AVI
Format/Info : Audio Video Interleave
File size : 1.25 GiB
Duration : 1h 29mn
Overall bit rate : 2 006 Kbps
Writing application : VirtualDubMod 1.5.10.2 (build 2540/release)
Writing library : VirtualDubMod build 2540/release
Video
ID : 0
Format : MPEG-4 Visual
Format profile : Advanced Simple@L5
Format settings, BVOP : 1
Format settings, QPel : No
Format settings, GMC : No warppoints
Format settings, Matrix : Default (H.263)
Codec ID : XVID
Codec ID/Hint : XviD
Duration : 1h 29mn
Bit rate : 1 736 Kbps
Width : 640 pixels
Height : 464 pixels
Display aspect ratio : 1.379
Frame rate : 25.000 fps
Color space : YUV
Chroma subsampling : 4:2:0
Bit depth : 8 bits
Scan type : Progressive
Compression mode : Lossy
Bits/(Pixel*Frame) : 0.234
Stream size : 1.09 GiB (87%)
Writing library : XviD 1.1.2 (UTC 2006-11-01)
Audio #1
ID : 1
Format : MPEG Audio
Format version : Version 1
Format profile : Layer 3
Mode : Joint stereo
Mode extension : MS Stereo
Codec ID : 55
Codec ID/Hint : MP3
Duration : 1h 29mn
Bit rate mode : Constant
Bit rate : 128 Kbps
Channel(s) : 2 channels
Sampling rate : 44.1 KHz
Compression mode : Lossy
Stream size : 82.0 MiB (6%)
Alignment : Split accross interleaves
Interleave, duration : 40 ms (1.00 video frame)
Interleave, preload duration : 500 ms
Audio #2
ID : 2
Format : MPEG Audio
Format version : Version 1
Format profile : Layer 3
Mode : Joint stereo
Mode extension : MS Stereo
Codec ID : 55
Codec ID/Hint : MP3
Duration : 1h 29mn
Bit rate mode : Constant
Bit rate : 128 Kbps
Channel(s) : 2 channels
Sampling rate : 48.0 KHz
Compression mode : Lossy
Stream size : 82.0 MiB (6%)
Alignment : Split accross interleaves
Interleave, duration : 40 ms (1.00 video frame)
Interleave, preload duration : 500 ms



Скачать Монах.Le.moine.The.Monk.(Адонис.Киру).[1972.готические.ужасы.драма.VHSRip].[VO.(Перевод.ССК+)].+.[Original.(Eng)].torrent без регистрации
Золото ЗОЛОТАЯ РАЗДАЧА! СКАЧАННОЕ НЕ ЗАСЧИТЫВАЕТСЯ! Золото
Дата: Зарегистрирован   [ Тип: внутренний ] Как тут cкачать?
MAGNET ссылка
MAGNET ссылка


Скачать .torrent

51 KB

Статус: проверено DHT
Скачан: торрент - 108 раз, раздача полностью - 5 раз
Размер: 1,25 GB
Оценка:  - (Голосов: 0)
Поблагодарили: 1
Поделиться ссылкой на эту раздачу с друзьями:
В контактеFacebookОдноклассникиTwitterLivejournalМой МирLiveinternet
 

 
Показать сообщения:    


Вы не можете начинать темы
Вы не можете отвечать на сообщения
Вы не можете редактировать свои сообщения
Вы не можете удалять свои сообщения
Вы не можете голосовать в опросах
Вы не можете прикреплять файлы к сообщениям
Вы можете скачивать файлы