Loading...
Error

Скачать Тотальная слежка / La totale! (Клод Зиди) [1991, комедия, приключения, BDRip] [MVO] торрент без регистрации

 
Статистика раздачи
Размер:  1,48 GB   |    Скачан:  113 раз
Сидов:  1  [  0 KB/s  ]  
 
Автор Сообщение

Marsianka

[] 

Тотальная слежка / La totale!
Страна: Франция
Жанр: комедия, приключения
Год выпуска: 1991
Продолжительность: 01:43:28
Перевод: Профессиональный (многоголосый закадровый)
Cубтитры: нет
Режиссер: Клод Зиди / Claude Zidi
В ролях: Тьерри Лермитт, Миу-Миу, Эдди Митчелл, Мишель Бужена, Жан Бенгиги, Анник Алан, Клаудине Вильде, Франсуа Хаджи-Лазаро, Ян Эпстейн, Сагамор Стевенен
Описание: Элен уверена, что ее муж Франсуа - скромный госслужащий. За 18 лет совместной жизни она так и не догадалась, что на самом деле он выполняет сверхсложные задания правительства. Сам Франсуа будучи спецагентом в свою очередь не замечает, что же происходит в его семье. Сын уже месяц не ходит в школу, а у жены Элен появился любовник. Элен, в поисках приключений, связывается с проходимцем Симоном. Франсуа используя служебное положение в личных целях начинает следить за своей семьёй. Между тем Франсуа и его "контора" выходят на крупного международного террориста Саркиса…



Качество видео: BDRip
Формат видео: AVI
Видео: 720x432 (1.67:1), 24.000 fps, XviD build 50 ~1588 kbps avg, 0.21 bit/pixel
Аудио: 48 kHz, AC3 Dolby Digital, 3/2 (L,C,R,l,r) + LFE ch, ~448 kbps
Тотальная слежка - La totale! [by Edich2].avi
Format : AVI
Format/Info : Audio Video Interleave
File size : 1.48 GiB
Duration : 1h 43mn
Overall bit rate : 2 046 Kbps
Writing application : VirtualDubMod 1.5.10.3 | www.virtualdub-fr.org || (build 2550/release)
Writing library : VirtualDubMod build 2550/release
Video
ID : 0
Format : MPEG-4 Visual
Format profile : Advanced Simple@L5
Format settings, BVOP : 2
Format settings, QPel : No
Format settings, GMC : No warppoints
Format settings, Matrix : Custom
Codec ID : XVID
Codec ID/Hint : XviD
Duration : 1h 43mn
Bit rate : 1 589 Kbps
Width : 720 pixels
Height : 432 pixels
Display aspect ratio : 1.667
Frame rate : 24.000 fps
Color space : YUV
Chroma subsampling : 4:2:0
Bit depth : 8 bits
Scan type : Progressive
Compression mode : Lossy
Bits/(Pixel*Frame) : 0.213
Stream size : 1.15 GiB (78%)
Writing library : XviD 1.2.1 (UTC 2008-12-04)
Audio
ID : 1
Format : AC-3
Format/Info : Audio Coding 3
Mode extension : CM (complete main)
Format settings, Endianness : Big
Codec ID : 2000
Duration : 1h 43mn
Bit rate mode : Constant
Bit rate : 448 Kbps
Channel count : 6 channels
Channel positions : Front: L C R, Side: L R, LFE
Sampling rate : 48.0 KHz
Bit depth : 16 bits
Compression mode : Lossy
Stream size : 332 MiB (22%)
Alignment : Split accross interleaves
Interleave, duration : 42 ms (1.00 video frame)
Interleave, preload duration : 500 ms



Скачать Тотальная.слежка.La.totale!.(Клод.Зиди).[1991.комедия.приключения.BDRip].[MVO].torrent без регистрации
Золото ЗОЛОТАЯ РАЗДАЧА! СКАЧАННОЕ НЕ ЗАСЧИТЫВАЕТСЯ! Золото
Дата: Зарегистрирован   [ Тип: внутренний ] Как тут cкачать?
MAGNET ссылка
MAGNET ссылка


Скачать .torrent

15 KB

Статус: проверено DHT
Скачан: торрент - 113 раз, раздача полностью - 20 раз
Размер: 1,48 GB
Оценка:  - (Голосов: 0)
Поблагодарили: 0
Поделиться ссылкой на эту раздачу с друзьями:
В контактеFacebookОдноклассникиTwitterLivejournalМой МирLiveinternet
 

 
Показать сообщения:    


Вы не можете начинать темы
Вы не можете отвечать на сообщения
Вы не можете редактировать свои сообщения
Вы не можете удалять свои сообщения
Вы не можете голосовать в опросах
Вы не можете прикреплять файлы к сообщениям
Вы можете скачивать файлы