Loading...
Error

/ The Upside of Anger ( ) [2005, , , BDRip] [DVO (R5, Tycoon)] + [AVO ()]

 
1,77 GB   |    :  112
1  [  0 KB/s  ]  
 

Marsianka

[] 

The Upside of Anger

...is the person you can become

: 2005
: , ,
: ,
: 01:56:46
: (, ) (R5)
(, ) (Tycoon)
(, ) ( ):
: / Mike Binder
: / Mike Binder
: / Jack Binder, / Alex Gartner, / Sammy Lee, ʸ / Chris Curling, / Mark Damon
: / Richard Greatrex
: / Alexandre Desplat
: (Terry Ann Wolfmeyer), (Denny Davies), (Andy Wolfmeyer), (Emily Wolfmeyer), (Hadley Wolfmeyer), (Lavender Popeye Wolfmeyer), (Adam Shep Goodman), (David Junior), (Gorden Reiner), (Grey Wolfmeyer), (Darlene), (Gina)
: , , . , . , , .
. . . , , . , , ...



MPAA: R - 17
: BDRip / Upside.of.Anger.2005.1080p.Bluray.GER.AVC.Remux.HDCLUB
: AVI
: 720x304 (2.37:1), 23.976 fps, XviD build 65 ~1384 kbps avg, 0.26 bit/pixel
I: 48 kHz, AC3 Dolby Digital, 2/0 (L,R) ch, ~192 kbps (R5)
II: 48 kHz, AC3 Dolby Digital, 2/0 (L,R) ch, ~192 kbps (Tycoon)
III: 48 kHz, AC3 Dolby Digital, 3/2 (L,C,R,l,r) + LFE ch, ~384 kbps (AVO) ()

:

General
Complete name : E:\\The.Upside.of.Anger.2005.BDRip.All.Films.avi
Format : AVI
Format/Info : Audio Video Interleave
File size : 1.45 GiB
Duration : 1h 56mn
Overall bit rate : 1 783 Kbps
Movie name : The.Upside.of.Anger.2005.BDRip.All.Films
Director : DIABLO93
Genre : Drama
Writing application : VirtualDubMod 1.5.10.3 | www.virtualdub-fr.org || (build 2550/release)
Original source form/Name : Movie
Copyright : Rutracker.org (R.G. All Films)
Video
ID : 0
Format : MPEG-4 Visual
Format profile : Advanced Simple@L5
Format settings, BVOP : 2
Format settings, QPel : No
Format settings, GMC : No warppoints
Format settings, Matrix : Custom
Codec ID : XVID
Codec ID/Hint : XviD
Duration : 1h 56mn
Bit rate : 1 385 Kbps
Width : 720 pixels
Height : 304 pixels
Display aspect ratio : 2.35:1
Frame rate : 23.976 fps
Color space : YUV
Chroma subsampling : 4:2:0
Bit depth : 8 bits
Scan type : Progressive
Compression mode : Lossy
Bits/(Pixel*Frame) : 0.264
Stream size : 1.13 GiB (78%)
Writing library : XviD 65
Audio #1
ID : 1
Format : AC-3
Format/Info : Audio Coding 3
Mode extension : CM (complete main)
Format settings, Endianness : Big
Codec ID : 2000
Duration : 1h 56mn
Bit rate mode : Constant
Bit rate : 192 Kbps
Channel(s) : 2 channels
Channel positions : Front: L R
Sampling rate : 48.0 KHz
Bit depth : 16 bits
Compression mode : Lossy
Stream size : 160 MiB (11%)
Alignment : Split accross interleaves
Interleave, duration : 42 ms (1.00 video frame)
Interleave, preload duration : 500 ms
Audio #2
ID : 2
Format : AC-3
Format/Info : Audio Coding 3
Mode extension : CM (complete main)
Format settings, Endianness : Big
Codec ID : 2000
Duration : 1h 56mn
Bit rate mode : Constant
Bit rate : 192 Kbps
Channel(s) : 2 channels
Channel positions : Front: L R
Sampling rate : 48.0 KHz
Bit depth : 16 bits
Compression mode : Lossy
Stream size : 160 MiB (11%)
Alignment : Split accross interleaves
Interleave, duration : 42 ms (1.00 video frame)
Interleave, preload duration : 500 ms




..The.Upside.of.Anger.(.).[2005...BDRip].[DVO.(R5.Tycoon)].+.[AVO.()].torrent
  ! ! 
:   [ : ] c?
MAGNET
MAGNET


.torrent

18 KB

: DHT
: - 112 , - 23
: 1,77 GB
- (: 0)
: 1
:
 FacebookTwitterLivejournal Liveinternet
 

 
: