Loading...
Error

Скачать Ре-цикл / Re-cycle / Gwai wik (Оксид Пан, Дэнни Пан) [2006, ужасы, фэнтези, триллер, BDRip-AVC] [MVO]+[Sub]x2 торрент без регистрации

 
Статистика раздачи
Размер:  1,45 GB   |    Скачан:  97 раз
Сидов:  1  [  0 KB/s  ]  
 
Автор Сообщение

Marsianka

[] 

Ре-цикл / Re-cycle / Gwai wik (2006) BDRip-AVC

Информация о фильме
Название: Ре-цикл
Оригинальное название: Re-cycle / Gwai wik
Год выхода: 2006
Жанр: ужасы, фэнтези, триллер
Режиссер: Оксид Пан, Дэнни Пан

В ролях: Анджелика Ли, Поу-Сои Чинг, Экин Чэн, Лоуренс Чоу, Вирайвон Джаувсенг, Сиу-Минг Лау, Рэйн Ли, Кики Зенг, Джетрин Ваттанасин...

О фильме: Первый роман молодой писательницы Чу Ксун сразу же стал бестселлером. Окрыленная успехом, Чу берется за новую работу. Ее новая книга о Стране Призраков и сверхъестественных силах. Но закончив пару глав, Чу не хочет больше писать.

Она уничтожает все файлы, связанные с романом. Только выдуманные образы не уходят, и Чу начинает замечать, что реальность и события ненаписанной книги все больше переплетаются. Самые ужасные фантазии готовы стать реальностью



Страна: Таиланд, Гонконг
Продолжительность: 01:48:51
Перевод: Профессиональный (многоголосый закадровый)

Файл
Кодек: х.264
Качество: BDRip-AVC
Видео: 1024х432 (2,40:1), 24 fps, 1462 kbps, 0.138 bit/pixel
Звук: 48 kHz, AC3 Dolby Digital, 6 ch, ~448.00 kbps
Субтитры: Русские, Английские (отключаемые)

&
Общее
Уникальный идентификатор : 213509969169531492244477963440573335650 (0xA0A08638D8371D0285F7CCB344CF4862)
Полное имя : D:Re-cycle.2006.BDRip-AVC.mkv
Формат : Matroska
Версия формата : Version 4 / Version 2
Размер файла : 1,45 Гбайт
Продолжительность : 1 ч. 48 м.
Общий поток : 1911 Кбит/сек
Название фильма : Ре-цикл / Re-cycle / Gwai wik (2006) BDRip-AVC rip by Rulya74
Дата кодирования : UTC 2013-09-30 16:39:30
Программа кодирования : mkvmerge v6.2.0 ('Promised Land') built on Apr 28 2013 12:22:01
Библиотека кодирования : libebml v1.3.0 + libmatroska v1.4.0

Видео
Идентификатор : 1
Формат : AVC
Формат/Информация : Advanced Video Codec
Профиль формата : High@L4.1
Параметр CABAC формата : Да
Параметр ReFrames формата : 10 кадров
Идентификатор кодека : V_MPEG4/ISO/AVC
Продолжительность : 1 ч. 48 м.
Битрейт : 1462 Кбит/сек
Ширина : 1024 пикселя
Высота : 432 пикселя
Соотношение сторон : 2,40:1
Режим частоты кадров : Постоянный
Частота кадров : 24,000 кадра/сек
Цветовое пространство : YUV
Субдискретизация насыщенности : 4:2:0
Битовая глубина : 8 бит
Тип развёртки : Прогрессивная
Бит/(Пиксели*Кадры) : 0.138
Размер потока : 1,08 Гбайт (75%)
Библиотека кодирования : x264 core 133 r2334 a3ac64b
Настройки программы : cabac=1 / ref=10 / deblock=1:-3:-3 / analyse=0x3:0x113 / me=umh / subme=9 / psy=1 / psy_rd=1.00:0.04 / mixed_ref=1 / me_range=32 / chroma_me=1 / trellis=2 / 8x8dct=1 / cqm=0 / deadzone=21,11 / fast_pskip=0 / chroma_qp_offset=-3 / threads=5 / lookahead_threads=1 / sliced_threads=0 / nr=0 / decimate=1 / interlaced=0 / bluray_compat=0 / constrained_intra=0 / bframes=6 / b_pyramid=2 / b_adapt=1 / b_bias=0 / direct=3 / weightb=1 / open_gop=0 / weightp=2 / keyint=240 / keyint_min=24 / scenecut=40 / intra_refresh=0 / rc_lookahead=40 / rc=2pass / mbtree=1 / bitrate=1462 / ratetol=1.0 / qcomp=0.60 / qpmin=10 / qpmax=69 / qpstep=4 / cplxblur=20.0 / qblur=0.5 / vbv_maxrate=62500 / vbv_bufsize=78125 / nal_hrd=none / ip_ratio=1.40 / aq=2:1.00
Default : Да
Forced : Нет

Аудио
Идентификатор : 2
Формат : AC-3
Формат/Информация : Audio Coding 3
Расширение режима : CM (complete main)
Параметр Endianness формата : Big
Идентификатор кодека : A_AC3
Продолжительность : 1 ч. 48 м.
Вид битрейта : Постоянный
Битрейт : 448 Кбит/сек
Каналы : 6 каналов
Расположение каналов : Front: L C R, Side: L R, LFE
Частота : 48,0 КГц
Битовая глубина : 16 бит
Метод сжатия : С потерями
Размер потока : 349 Мбайт (23%)
Заголовок : Профессиональный (многоголосый закадровый)
Язык : Russian
Default : Да
Forced : Нет

Текст #1
Идентификатор : 3
Формат : UTF-8
Идентификатор кодека : S_TEXT/UTF8
Идентификатор кодека/Информация : UTF-8 Plain Text
Язык : Russian
Default : Да
Forced : Нет

Текст #2
Идентификатор : 4
Формат : UTF-8
Идентификатор кодека : S_TEXT/UTF8
Идентификатор кодека/Информация : UTF-8 Plain Text
Язык : English
Default : Нет
Forced : Нет



Скачать Ре-цикл.Re-cycle.Gwai.wik.(Оксид.Пан.Дэнни.Пан).[2006.ужасы.фэнтези.триллер.BDRip-AVC].[MVO]+[Sub]x2.torrent без регистрации
Золото ЗОЛОТАЯ РАЗДАЧА! СКАЧАННОЕ НЕ ЗАСЧИТЫВАЕТСЯ! Золото
Дата: Зарегистрирован   [ Тип: внутренний ] Как тут cкачать?
MAGNET ссылка
MAGNET ссылка


Скачать .torrent

15 KB

Статус: проверено DHT
Скачан: торрент - 97 раз, раздача полностью - 2 раз
Размер: 1,45 GB
Оценка:  - (Голосов: 0)
Поблагодарили: 1
Поделиться ссылкой на эту раздачу с друзьями:
В контактеFacebookОдноклассникиTwitterLivejournalМой МирLiveinternet
 

 
Показать сообщения:    


Вы не можете начинать темы
Вы не можете отвечать на сообщения
Вы не можете редактировать свои сообщения
Вы не можете удалять свои сообщения
Вы не можете голосовать в опросах
Вы не можете прикреплять файлы к сообщениям
Вы можете скачивать файлы