Loading...
Error

Скачать Дневники Вампира / Vampire Diaries (5х1-21 из 22) (Маркос Сига, Крис Грисмер и др.) [2013, ужасы, фэнтези, драма, мелодрама, WEB-DLRip] [Original]+[Rus Subs (OTHfilm)] торрент без регистрации

 
Статистика раздачи
Размер:  4,61 GB   |    Скачан:  100 раз
Сидов:  1  [  0 KB/s  ]  
 
Автор Сообщение

МихаНЕзатор

[] 

Добавлена 21 серия.

Дневники Вампира / Vampire Diaries


Год выпуска: 2013
Страна: США
Жанр: Ужасы, фэнтези, драма, мелодрама
Продолжительность: ~ 42 мин
Перевод: Субтитры OTHfilm
Русские субтитры: есть
Режиссёр: Маркос Сига, Крис Грисмер, Венди Станцлер, Дж. Миллер Тобин, Джон Беринг, Джошуа Батлер, Л

В ролях: Нина Добрев, Пол Уэсли, Иен Сомерхолдер, Стивен Р. МакКуин, Катерина Грэхэм, Кэндис Аккола, Зак Рериг, Майкл Тревино, Мэттью Дэвис, Сара Каннинг и др.

Описание: Все лето Елена провела наслаждаясь своими страстными отношениями с Дейманом, в тоже время помогая Джереми приобщаться к нормальной жизни, после того как он вернулся из мертвых. Лето кончилось и Елена с нетерпением ждет первых дней учебы в колледже и жизни в общежитие с ее новой соседкой по комнате, Каролайн. Две подруги до сих пор верят что Бонни все лето путешествует и скоро присоединится к ним. Они удивляются еще больше, когда к ним в комнату заселяют странную девушку, которую зовут Меган. В тоже время Кэтрин появляется на пороге дома Сальваторов, прося Дэймона помочь ей спрятаться от ее бывших врагов, которые хотят расправиться с ней, узнав что теперь она человек. Мэтт и Ребекка возвращаются в Мистик Фаллс проведя безумное лето в Европе, где они познакомились со странной девушкой по имени Надя. Елена не может смирится с чувством, что со Стефаном что-то не так и он не просто пропал, путешествуя где то...



Качество: WEB-DLRip
Формат: MP4
Видео кодек: AVC
Аудио кодек: AAC
Видео: AVC, 16:9, 23.976 fps, 671 Kbps, 0.096
Аудио: AAC, 48.0 KHz, 2 channels, 121 Kbps

АНОНСЫ ПОПУЛЯРНЫХ РАЗДАЧ


12.05.2014 г. торент обновлён, добавлена 21-я серия!
General
Полное имя : E:\локалка\The.Vampire.Diaries-05x10-Fifty.Shades.of.Grayson.mp4
Формат : MPEG-4
Профиль формата : Base Media
Идентификатор кодека : isom
Размер файла : 242 MiB
Продолжительность : 42mn 31s
Режим общего битрейта : Variable
Общий поток : 797 Kbps
Дата кодирования : UTC 2013-12-13 01:24:12
Дата пометки : UTC 2013-12-13 01:24:12
Video
Идентификатор : 1
Формат : AVC
Формат/Информация : Advanced Video Codec
Профиль формата : High@L3.1
Параметр CABAC формата : Yes
Параметр ReFrames формата : 5 frames
Идентификатор кодека : avc1
Идентификатор кодека/Информация : Advanced Video Coding
Продолжительность : 42mn 31s
Битрейт : 671 Kbps
Максимальный битрейт : 4 983 Kbps
Ширина : 720 pixels
Высота : 406 pixels
Соотношение сторон : 16:9
Режим частоты кадров : Constant
Частота кадров : 23.976 fps
Цветовое пространство : YUV
Субдискретизация насыщенности : 4:2:0
Битовая глубина : 8 bits
Тип развёртки : Progressive
Бит/(Пиксели*Кадры) : 0.096
Размер потока : 204 MiB (84%)
Библиотека кодирования : x264 core 140 r2377 1ca7bb9
Настройки программы : cabac=1 / ref=5 / deblock=1:0:0 / analyse=0x3:0x133 / me=umh / subme=9 / psy=1 / psy_rd=1.00:0.00 / mixed_ref=1 / me_range=16 / chroma_me=1 / trellis=2 / 8x8dct=1 / cqm=0 / deadzone=21,11 / fast_pskip=1 / chroma_qp_offset=-2 / threads=18 / lookahead_threads=1 / sliced_threads=0 / nr=0 / decimate=1 / interlaced=0 / bluray_compat=0 / constrained_intra=0 / bframes=3 / b_pyramid=2 / b_adapt=2 / b_bias=0 / direct=3 / weightb=1 / open_gop=0 / weightp=2 / keyint=250 / keyint_min=23 / scenecut=40 / intra_refresh=0 / rc_lookahead=60 / rc=crf / mbtree=1 / crf=19.0 / qcomp=0.60 / qpmin=0 / qpmax=69 / qpstep=4 / ip_ratio=1.40 / aq=1:1.00
Дата кодирования : UTC 2013-12-13 00:50:55
Дата пометки : UTC 2013-12-13 01:24:14
Matrix coefficients : BT.709
Audio
Идентификатор : 2
Формат : AAC
Формат/Информация : Advanced Audio Codec
Профиль формата : LC
Идентификатор кодека : 40
Продолжительность : 42mn 30s
Вид битрейта : Variable
Битрейт : 121 Kbps
Максимальный битрейт : 147 Kbps
Каналы : 2 channels
Расположение каналов : Front: L R
Частота : 48.0 KHz
Метод сжатия : Lossy
Задержка видео : 83ms
Размер потока : 36.8 MiB (15%)
Дата кодирования : UTC 2013-12-13 01:24:13
Дата пометки : UTC 2013-12-13 01:24:14
1 - I Know What You Did Last Summer
2 - True Lies
3 - Original Sin
4 - For Whom the Bell Tolls
5 - Monster's Ball
6 - Handle with Care
7 - Death and the Maiden
8 - Dead Man on Campus
9 - The Cell
10 - Fifty Shades of Grayson



Скачать Дневники.Вампира.Vampire.Diaries.(5х1-21.из.22).(Маркос.Сига.Крис.Грисмер.и.др.).[2013.ужасы.фэнтези.драма.мелодрама.WEB-DLRip].[Original]+[Rus.Subs.(OTHfilm)].torrent без регистрации
Золото ЗОЛОТАЯ РАЗДАЧА! СКАЧАННОЕ НЕ ЗАСЧИТЫВАЕТСЯ! Золото
Дата: Зарегистрирован   [ Тип: внутренний ] Как тут cкачать?
MAGNET ссылка
MAGNET ссылка


Скачать .torrent

16 KB

Статус: проверено DHT
Скачан: торрент - 100 раз, раздача полностью - 2 раз
Размер: 4,61 GB
Оценка:  - (Голосов: 0)
Поблагодарили: 0
Поделиться ссылкой на эту раздачу с друзьями:
В контактеFacebookОдноклассникиTwitterLivejournalМой МирLiveinternet
 

 
Показать сообщения:    


Вы не можете начинать темы
Вы не можете отвечать на сообщения
Вы не можете редактировать свои сообщения
Вы не можете удалять свои сообщения
Вы не можете голосовать в опросах
Вы не можете прикреплять файлы к сообщениям
Вы можете скачивать файлы