Loading...
Error

Скачать Весна на Заречной улице (Марлен Хуциев, Феликс Миронер) [1956, мелодрама, BDRip] [1080p] торрент без регистрации

Статистика раздачи
Размер:  5,77 GB   |    Скачан:  381 раз
Сидов:  1  [  0 KB/s  ]  
 
 
 
Автор Сообщение

МихаНЕзатор

[] 

Информация о фильме
Оригинальное название: Весна на Заречной улице
Год выхода: 1956
Жанр: мелодрама
Режиссер: Марлен Хуциев, Феликс Миронер

В ролях: Нина Иванова, Николай Рыбников, Владимир Гуляев, Валентина Пугачева, Геннадий Юхтин, Римма Шорохова, Николай Ключнев, Марина Гаврилко, Юрий Белов, Валентин Брылеев

О фильме: История любви юной учительницы школы рабочей молодежи и ее ученика одна из самых популярных отечественных мелодрам. Герой фильма, парень лихой и самоуверенный, лучший сталевар завода, не привык к отказам женщин. И вдруг его домогательства получают отпор!..
Поначалу он пытается играть в безразличие. Но проходит время и он вдруг понимает, что к нему впервые пришло настоящее, глубокое чувство.



Выпущено: СССР
Продолжительность: 01:34:00
Перевод: Оригинал

Файл
Кодек: x264
Качество: BDRip 1080p
Видео: 1492x1080, 8336 Kbps, 23.976 fps
Аудио: AC-3, 6 ch, 448 kbps (Rus)
Субтитры: нет

АНОНСЫ ПОПУЛЯРНЫХ РАЗДАЧ
Общее
Уникальный идентификатор : 214857959059692013499752055612613181739 (0xA1A423413E8961BCA34946945B31C12B)
Полное имя : Весна на Заречной улице.1956.BDRip.1080p.Rus.mkv
Формат : Matroska
Версия формата : Version 2
Размер файла : 5,77 Гбайт
Продолжительность : 1 ч. 34 м.
Общий поток : 8787 Кбит/сек
Название фильма : Весна на Заречной улице.1956
Дата кодирования : UTC 2014-04-17 13:57:16
Программа кодирования : mkvmerge v5.8.0 ('No Sleep / Pillow') built on Sep 2 2012 15:37:04
Библиотека кодирования : libebml v1.2.3 + libmatroska v1.3.0
Attachment : Yes

Видео
Идентификатор : 1
Формат : AVC
Формат/Информация : Advanced Video Codec
Профиль формата : High@L4.1
Параметр CABAC формата : Да
Параметр ReFrames формата : 4 кадра
Идентификатор кодека : V_MPEG4/ISO/AVC
Продолжительность : 1 ч. 34 м.
Битрейт : 8336 Кбит/сек
Ширина : 1492 пикселя
Высота : 1080 пикселей
Соотношение сторон : 1,381
Режим частоты кадров : Постоянный
Частота кадров : 23,976 кадра/сек
Цветовое пространство : YUV
Субдискретизация насыщенности : 4:2:0
Битовая глубина : 8 бит
Тип развёртки : Прогрессивная
Бит/(Пиксели*Кадры) : 0.216
Размер потока : 5,36 Гбайт (93%)
Заголовок : Rip by Boriy
Библиотека кодирования : x264 core 142 r2409 d6b4e63
Настройки программы : cabac=1 / ref=4 / deblock=1:-3:-3 / analyse=0x3:0x113 / me=umh / subme=11 / psy=1 / psy_rd=1.00:0.00 / mixed_ref=1 / me_range=32 / chroma_me=1 / trellis=2 / 8x8dct=1 / cqm=0 / deadzone=21,11 / fast_pskip=0 / chroma_qp_offset=-2 / threads=12 / lookahead_threads=1 / sliced_threads=0 / nr=0 / decimate=0 / interlaced=0 / bluray_compat=0 / constrained_intra=0 / bframes=6 / b_pyramid=2 / b_adapt=2 / b_bias=0 / direct=3 / weightb=1 / open_gop=0 / weightp=2 / keyint=240 / keyint_min=23 / scenecut=40 / intra_refresh=0 / rc=2pass / mbtree=0 / bitrate=8336 / ratetol=1.0 / qcomp=0.60 / qpmin=0 / qpmax=69 / qpstep=4 / cplxblur=20.0 / qblur=0.5 / ip_ratio=1.40 / pb_ratio=1.30 / aq=1:1.00
Язык : English
Default : Да
Forced : Нет

Аудио
Идентификатор : 2
Формат : AC-3
Формат/Информация : Audio Coding 3
Расширение режима : CM (complete main)
Параметр Endianness формата : Big
Идентификатор кодека : A_AC3
Продолжительность : 1 ч. 34 м.
Вид битрейта : Постоянный
Битрейт : 448 Кбит/сек
Каналы : 6 каналов
Расположение каналов : Front: L C R, Side: L R, LFE
Частота : 48,0 КГц
Битовая глубина : 16 бит
Метод сжатия : С потерями
Размер потока : 301 Мбайт (5%)
Заголовок : Оригинал
Язык : Russian
Default : Да
Forced : Нет

Меню
00:00:00.000 : :Chapter 1
00:09:01.123 : :Chapter 2
00:16:21.313 : :Chapter 3
00:24:45.025 : :Chapter 4
00:30:19.359 : :Chapter 5
00:34:48.252 : :Chapter 6
00:41:05.588 : :Chapter 7
00:44:11.357 : :Chapter 8
00:51:23.580 : :Chapter 9
00:53:54.564 : :Chapter 10
01:01:49.747 : :Chapter 11
01:08:26.310 : :Chapter 12
01:13:59.143 : :Chapter 13
01:20:51.346 : :Chapter 14
01:28:07.240 : :Chapter 15




Скачать Весна.на.Заречной.улице.(Марлен.Хуциев.Феликс.Миронер).[1956.мелодрама.BDRip].[1080p].torrent без регистрации
Золото ЗОЛОТАЯ РАЗДАЧА! СКАЧАННОЕ НЕ ЗАСЧИТЫВАЕТСЯ! Золото
Дата: Зарегистрирован   [ Тип: внутренний ] Как тут cкачать?
MAGNET ссылка
MAGNET ссылка


Скачать .torrent

29 KB

Статус: проверено DHT
Скачан: торрент - 381 раз, раздача полностью - 200 раз
Размер: 5,77 GB
Оценка:  5 (Голосов: 1)
Поблагодарили: 3
Поделиться ссылкой на эту раздачу с друзьями:
В контактеFacebookОдноклассникиTwitterLivejournalМой МирLiveinternet
 

 

remech15

[] 

кто на раздаче,ау aq
 
Показать сообщения:    


Вы не можете начинать темы
Вы не можете отвечать на сообщения
Вы не можете редактировать свои сообщения
Вы не можете удалять свои сообщения
Вы не можете голосовать в опросах
Вы не можете прикреплять файлы к сообщениям
Вы можете скачивать файлы