Loading...
Error

Скачать Ворон: Жестокое причастие / The Crow: Wicked Prayer (Лэнс Манджиа) [2005, фэнтези, боевик, триллер, приключения, BDRip-AVC] [MVO] торрент без регистрации

 
Статистика раздачи
Размер:  1,89 GB   |    Скачан:  107 раз
Сидов:  1  [  0 KB/s  ]  
 
Автор Сообщение

Marsianka

[] 

Ворон: Жестокое причастие / The Crow: Wicked Prayer (2005) BDRip-AVC | iPad | P
«Passion..Revenge...Eternity»


Название: Ворон: Жестокое причастие
Оригинальное название: The Crow: Wicked Prayer
Год выхода: 2005
Жанр: фэнтези, боевик, триллер, приключения
Режиссер: Лэнс Манджиа
В ролях: Эдвард Ферлонг, Тара Рид, Дэвид Бореаназ, Юдзи Окумото, Маркус Чонг, Тито Ортис, Роземберг Сальгадо, Эммануэль Шрики, Дэнни Трехо, Дэйв Баэс

О фильме:
Приказав своим последователям совершить ритуальное убийство Джимми Куэрво и его подруги, вожак банды сата]нистов Люк Крэш надеялся обрести бессмертие в обличье демона. Но Джимми восстал из мертвых в образе Ворона - «убийцы убийц» из древних индейских легенд, повелевающего сверхъестественными силами. Его душа пылает жаждой мщения...



Страна: США
Студия: Bad Bird Productions, Dimension Films, Jeff Most Productions

Продолжительность: 01:39:13
Перевод: Русский профессиональный многоголосый закадровый

Файл
Кодек: H.264
Качество: BDRip [576p]
Видео: 1024x576 (16:9) at 23.976 fps, AVC at 2300 kbps
1: АAС 2.0 160 kbps - Русский профессиональный многоголосый закадровый
2: АAС 2.0 160 kbps - Английский
Субтитры: отсутствуют

General
Complete name : I:modoutThe.Crow-Wicked.Prayer.2005.576p.P.m4v
Format : MPEG-4
Codec ID : M4V
File size : 1.89 GiB
Duration : 1h 39mn
Overall bit rate mode : Variable
Overall bit rate : 2 720 Kbps
Movie name : Ворон: Жестокое причастие
Performer : Lance Mungia
Genre : Action & Adventure
ContentType : Short Film
Deion : Приказав своим последователям совершить ритуальное убийство Джимми Куэрво и его подруги, вожак банды сата]нистов Люк Крэш надеялся обрести бессмертие в обличье демона. Но Джимми восстал из мертвых в образе Ворона - "убийцы убийц" из древних индейских
Recorded date : UTC 2005-06-03 07:00:00
Encoded date : UTC 2014-05-11 14:39:20
Tagged date : UTC 2014-05-11 14:45:14
Copyright : Dimension Films, Edward R. Pressman Film, Jeff Most Productions
Cover : Yes
Comment : «Passion..Revenge...Eternity»
ContentRating : mpaa|R|400|

Title/Sort : The Crow: Wicked Prayer
LongDeion : Приказав своим последователям совершить ритуальное убийство Джимми Куэрво и его подруги, вожак банды сата]нистов Люк Крэш надеялся обрести бессмертие в обличье демона. Но Джимми восстал из мертвых в образе Ворона - "убийцы убийц" из древних индейских легенд, повелевающего сверхъестественными силами. Его душа пылает жаждой мщения...
AppleStoreCatalogID : 553367310
Vendor : Apple:vendor_id:2005-11501

Video
ID : 1
Format : AVC
Format/Info : Advanced Video Codec
Format profile : High@L4.1
Format settings, CABAC : Yes
Format settings, ReFrames : 11 frames
Codec ID : avc1
Codec ID/Info : Advanced Video Coding
Duration : 1h 39mn
Bit rate : 2 380 Kbps
Maximum bit rate : 17.3 Mbps
Width : 1 024 pixels
Height : 576 pixels
Display aspect ratio : 16:9
Frame rate mode : Constant
Frame rate : 23.976 fps
Color space : YUV
Chroma subsampling : 4:2:0
Bit depth : 8 bits
Scan type : Progressive
Bits/(Pixel*Frame) : 0.168
Stream size : 1.65 GiB (88%)
Title : The Crow_ Wicked Prayer _2005_
Language : English
Encoded date : UTC 2014-05-11 14:39:20
Tagged date : UTC 2014-05-11 14:39:30

Audio #1
ID : 2
Format : AAC
Format/Info : Advanced Audio Codec
Format profile : LC
Codec ID : 40
Duration : 1h 39mn
Bit rate mode : Variable
Bit rate : 164 Kbps
Maximum bit rate : 225 Kbps
Channel(s) : 2 channels
Channel positions : Front: L R
Sampling rate : 48.0 KHz
Compression mode : Lossy
Stream size : 117 MiB (6%)
Title : MVO
Language : Russian
Encoded date : UTC 2014-05-11 14:34:08
Tagged date : UTC 2014-05-11 14:39:30

Audio #2
ID : 3
Format : AAC
Format/Info : Advanced Audio Codec
Format profile : LC
Codec ID : 40
Duration : 1h 39mn
Bit rate mode : Variable
Bit rate : 163 Kbps
Maximum bit rate : 227 Kbps
Channel(s) : 2 channels
Channel positions : Front: L R
Sampling rate : 48.0 KHz
Compression mode : Lossy
Stream size : 116 MiB (6%)
Title : Original
Language : English
Encoded date : UTC 2014-05-11 14:37:37
Tagged date : UTC 2014-05-11 14:39:30

Menu
ID : 4
Codec ID : text
Duration : 1h 39mn
Encoded date : UTC 2014-05-11 14:39:38
Tagged date : UTC 2014-05-11 14:39:38
Bit rate mode : CBR

x264 [info]: frame I:1162 Avg QP:14.61 size: 86024
x264 [info]: frame P:33195 Avg QP:18.89 size: 27618
x264 [info]: frame B:108375 Avg QP:22.11 size: 6962
x264 [info]: consecutive B-frames: 3.0% 3.3% 10.9% 19.4% 22.2% 31.6% 4.6% 2.5% 1.4% 0.4% 0.1% 0.1% 0.1% 0.2% 0.3%
x264 [info]: mb I I16..4: 13.3% 57.4% 29.3%
x264 [info]: mb P I16..4: 1.5% 9.2% 1.7% P16..4: 32.7% 35.1% 10.6% 2.4% 0.4% skip: 6.3%
x264 [info]: mb B I16..4: 0.1% 1.0% 0.1% B16..8: 37.2% 16.0% 2.1% direct: 3.6% skip:39.9% L0:40.0% L1:46.5% BI:13.5%
x264 [info]: 8x8 transform intra:72.6% inter:53.8%
x264 [info]: coded y,uvDC,uvAC intra: 81.5% 68.1% 39.0% inter: 17.4% 11.3% 4.0%
x264 [info]: i16 v,h,dc,p: 14% 11% 4% 72%
x264 [info]: i8 v,h,dc,ddl,ddr,vr,hd,vl,hu: 8% 6% 5% 10% 15% 15% 13% 14% 13%
x264 [info]: i4 v,h,dc,ddl,ddr,vr,hd,vl,hu: 11% 6% 7% 10% 15% 14% 12% 12% 12%
x264 [info]: i8c dc,h,v,p: 31% 27% 20% 22%
x264 [info]: Weighted P-Frames: Y:7.5% UV:5.1%
x264 [info]: ref P L0: 59.7% 9.3% 13.3% 5.1% 3.5% 2.6% 2.1% 1.2% 1.1% 0.9% 0.9% 0.2% 0.0%
x264 [info]: ref B L0: 86.8% 5.8% 2.8% 1.3% 1.0% 0.8% 0.6% 0.4% 0.3% 0.2%
x264 [info]: ref B L1: 95.0% 5.0%
x264 [info]: kb/s:2380.32


Sort Name: The Crow: Wicked Prayer
XID: Apple:vendor_id:2005-11501
Content ID: 553367310
Copyright: Dimension Films, Edward R. Pressman Film, Jeff Most Productions
ScreenWriters: Лэнс Манджиа, Джефф Мост, Шон Худ
Producers: Джефф Мост, Эдвард Р. Прессман, Стефен Белафонте
Director: Лэнс Манджиа
Cast: Эдвард Ферлонг, Тара Рид, Дэвид Бореаназ, Юдзи Окумото, Маркус Чонг, Тито Ортис, Роземберг Сальгадо, Эммануэль Шрики, Дэнни Трехо, Дэйв Баэс // David Boreanaz (Luc Crash), Edward Furlong (Jimmy Cuervo), Yuji Okumoto (Pestilence), Marcus Chong (War), Tito Ortiz (Famine), Tara Reid (Lola Byrne), Rosemberg Salgado (The Priest), Emmanuelle Chriqui (Lilly), Danny Trejo (Harold)
Rating: R
Long Deion: Приказав своим последователям совершить ритуальное убийство Джимми Куэрво и его подруги, вожак банды сата]нистов Люк Крэш надеялся обрести бессмертие в обличье демона. Но Джимми восстал из мертвых в образе Ворона - "убийцы убийц" из древних индейских легенд, повелевающего сверхъестественными силами. Его душа пылает жаждой мщения...
Deion: Приказав своим последователям совершить ритуальное убийство Джимми Куэрво и его подруги, вожак банды сата]нистов Люк Крэш надеялся обрести бессмертие в обличье демона. Но Джимми восстал из мертвых в образе Ворона - "убийцы убийц" из древних индейских
Release Date: 2005-06-03T07:00:00Z
Genre: Action & Adventure
Artist: Lance Mungia
Name: Ворон: Жестокое причастие
Comments: «Passion..Revenge...Eternity»






Скачать Ворон.Жестокое.причастие.The.Crow.Wicked.Prayer.(Лэнс.Манджиа).[2005.фэнтези.боевик.триллер.приключения.BDRip-AVC].[MVO].torrent без регистрации
Золото ЗОЛОТАЯ РАЗДАЧА! СКАЧАННОЕ НЕ ЗАСЧИТЫВАЕТСЯ! Золото
Дата: Зарегистрирован   [ Тип: внутренний ] Как тут cкачать?
MAGNET ссылка
MAGNET ссылка


Скачать .torrent

19 KB

Статус: проверено DHT
Скачан: торрент - 107 раз, раздача полностью - 20 раз
Размер: 1,89 GB
Оценка:  - (Голосов: 0)
Поблагодарили: 3
Поделиться ссылкой на эту раздачу с друзьями:
В контактеFacebookОдноклассникиTwitterLivejournalМой МирLiveinternet
 

 
Показать сообщения:    


Вы не можете начинать темы
Вы не можете отвечать на сообщения
Вы не можете редактировать свои сообщения
Вы не можете удалять свои сообщения
Вы не можете голосовать в опросах
Вы не можете прикреплять файлы к сообщениям
Вы можете скачивать файлы