Loading...
Error

Скачать Битлз: Четыре плюс один (Пятый в квартете) / Backbeat (Иэн Софтли) [1994, драма, биография, DVDRip-AVC] [DVO]+[Sub] торрент без регистрации

 
Статистика раздачи
Размер:  1,58 GB   |    Скачан:  117 раз
Сидов:  1  [  0 KB/s  ]  
 
Автор Сообщение

Marsianka

[] 

Информация о фильме
Название: Битлз: Четыре плюс один (Пятый в квартете)
Оригинальное название: Backbeat
Год выхода: 1994
Жанр: драма, биография
Режиссер: Иэн Софтли / Iain Softley
В ролях: Шерил Ли, Стивен Дорфф, Иэн Харт, Гэри Бэйкуэлл, Крис ОНил, Скот Уильямс, Кай Визингер, Дженнифер Или, Марсель Дюпрей, Джон Уайт...

О фильме:
Стюарт Сатклифф. Все знают группу «Битлз», но это имя знают только самые преданные поклонники легендарной четверки. Этот фильм рассказывает о «пятом в квартете», дружбе Стю с Джоном Ленноном, его участии в ансамбле в самый ранний, гамбургский период, его любви к немецкой девушке-фотографу Астрид. Стюарт Сатклифф не хотел быть музыкантом, он хотел быть художником. И стал им. К сожалению, жизнь его оборвалась очень рано. Он умер от кровоизлияния в мозг в 1962 году тогда, когда уже ушел из группы.



Страна: Великобритания, Германия
Студия: Channel Four Films, Fortbeam, PolyGram Filmed Entertainment
Продолжительность: 01:36:20.160
Перевод: Профессиональный (двухголосый закадровый)

Исходник R5 DVD9 Universal Rus
Общее
Уникальный идентификатор : 219011810635575574762969894730012574004 (0xA4C423F312BB1AF5962E5AA445544134)
Полное имя : I:FilmsBitlz_4_plus_1.1994.DVDRip-AVC.mkv
Формат : Matroska
Версия формата : Version 4 / Version 2
Размер файла : 1,58 Гбайт
Продолжительность : 1 ч. 36 м.
Общий поток : 2341 Кбит/сек
Дата кодирования : UTC 2014-05-11 17:17:17
Программа кодирования : mkvmerge v6.9.1 ('Blue Panther') 64bit built on Apr 18 2014 18:23:38
Библиотека кодирования : libebml v1.3.0 + libmatroska v1.4.1

Видео
Идентификатор : 1
Формат : AVC
Формат/Информация : Advanced Video Codec
Профиль формата : High@L4.1
Параметр CABAC формата : Да
Параметр ReFrames формата : 16 кадров
Идентификатор кодека : V_MPEG4/ISO/AVC
Продолжительность : 1 ч. 36 м.
Битрейт : 1954 Кбит/сек
Ширина : 720 пикселей
Высота : 544 пикселя
Соотношение сторон : 1,85:1
Режим частоты кадров : Постоянный
Частота кадров : 25,000 кадров/сек
Цветовое пространство : YUV
Субдискретизация насыщенности : 4:2:0
Битовая глубина : 8 бит
Тип развёртки : Прогрессивная
Бит/(Пиксели*Кадры) : 0.200
Размер потока : 1,29 Гбайт (82%)
Библиотека кодирования : x264 core 138 r2358 9e941d1
Настройки программы : cabac=1 / ref=16 / deblock=1:0:0 / analyse=0x3:0x133 / me=umh / subme=10 / psy=1 / psy_rd=1.10:0.10 / mixed_ref=1 / me_range=32 / chroma_me=1 / trellis=2 / 8x8dct=1 / cqm=0 / deadzone=21,11 / fast_pskip=0 / chroma_qp_offset=-3 / threads=8 / lookahead_threads=2 / sliced_threads=0 / nr=0 / decimate=0 / interlaced=0 / bluray_compat=0 / constrained_intra=0 / bframes=10 / b_pyramid=2 / b_adapt=2 / b_bias=0 / direct=3 / weightb=1 / open_gop=0 / weightp=2 / keyint=250 / keyint_min=25 / scenecut=60 / intra_refresh=0 / rc_lookahead=60 / rc=2pass / mbtree=0 / bitrate=1954 / ratetol=1.0 / qcomp=0.60 / qpmin=0 / qpmax=69 / qpstep=4 / cplxblur=20.0 / qblur=0.5 / vbv_maxrate=50000 / vbv_bufsize=62500 / nal_hrd=none / ip_ratio=1.40 / pb_ratio=1.30 / aq=2:1.00
Default : Нет
Forced : Нет
Коэффициенты матрицы : BT.601

Аудио #1
Идентификатор : 2
Формат : AC-3
Формат/Информация : Audio Coding 3
Профиль формата : Dolby Digital
Расширение режима : CM (complete main)
Параметр Endianness формата : Big
Идентификатор кодека : A_AC3
Продолжительность : 1 ч. 36 м.
Вид битрейта : Постоянный
Битрейт : 192 Кбит/сек
Каналы : 2 канала
Расположение каналов : Front: L R
Частота : 48,0 КГц
Битовая глубина : 16 бит
Метод сжатия : С потерями
Размер потока : 132 Мбайт (8%)
Язык : Russian
Default : Да
Forced : Нет

Аудио #2
Идентификатор : 3
Формат : AC-3
Формат/Информация : Audio Coding 3
Расширение режима : CM (complete main)
Параметр Endianness формата : Big
Идентификатор кодека : A_AC3
Продолжительность : 1 ч. 36 м.
Вид битрейта : Постоянный
Битрейт : 192 Кбит/сек
Каналы : 2 канала
Расположение каналов : Front: L R
Частота : 48,0 КГц
Битовая глубина : 16 бит
Метод сжатия : С потерями
Размер потока : 132 Мбайт (8%)
Язык : English
Default : Нет
Forced : Нет

Текст
Идентификатор : 4
Формат : VobSub
Режим смешивания : zlib
Идентификатор кодека : S_VOBSUB
Идентификатор кодека/Информация : The same subtitle format used on DVDs
Язык : English
Default : Нет
Forced : Нет

Меню
00:00:00.000 : en:Chapter 01
00:02:22.640 : en:Chapter 02
00:05:35.280 : en:Chapter 03
00:09:48.640 : en:Chapter 04
00:17:55.840 : en:Chapter 05
00:33:14.440 : en:Chapter 06
00:40:21.600 : en:Chapter 07
00:48:38.200 : en:Chapter 08
00:52:42.720 : en:Chapter 09
00:54:37.280 : en:Chapter 10
01:01:58.360 : en:Chapter 11
01:04:07.720 : en:Chapter 12
01:10:18.040 : en:Chapter 13
01:14:31.480 : en:Chapter 14
01:18:21.440 : en:Chapter 15
01:19:51.480 : en:Chapter 16
01:23:38.000 : en:Chapter 17
01:25:40.120 : en:Chapter 18
01:28:18.360 : en:Chapter 19
01:33:19.840 : en:Chapter 20
01:36:19.360 : en:Chapter 21
Файл
Кодек: h.264
Качество: DVDRip-AVC
Видео: 720x544 (1.85:1) @ 1010x544 (анаморф), 25.000 fps, AVC, ~1954 Kbps, 0.200 bits/pixel
Русский, 48.0 KHz, AC3, 2 ch, 192 Kbps
Английский, 48.0 KHz, AC3, 2 ch, 192 Kbps
Субтитры: Английские, VobSub
Релиз от: Temperest



Скачать Битлз.Четыре.плюс.один.(Пятый.в.квартете).Backbeat.(Иэн.Софтли).[1994.драма.биография.DVDRip-AVC].[DVO]+[Sub].torrent без регистрации
Золото ЗОЛОТАЯ РАЗДАЧА! СКАЧАННОЕ НЕ ЗАСЧИТЫВАЕТСЯ! Золото
Дата: Зарегистрирован   [ Тип: внутренний ] Как тут cкачать?
MAGNET ссылка
MAGNET ссылка


Скачать .torrent

16 KB

Статус: проверено DHT
Скачан: торрент - 117 раз, раздача полностью - 4 раз
Размер: 1,58 GB
Оценка:  - (Голосов: 0)
Поблагодарили: 1
Поделиться ссылкой на эту раздачу с друзьями:
В контактеFacebookОдноклассникиTwitterLivejournalМой МирLiveinternet
 

 
Показать сообщения:    


Вы не можете начинать темы
Вы не можете отвечать на сообщения
Вы не можете редактировать свои сообщения
Вы не можете удалять свои сообщения
Вы не можете голосовать в опросах
Вы не можете прикреплять файлы к сообщениям
Вы можете скачивать файлы