Loading...
Error

Скачать Интриганы / Интриганки / Les Intrigantes (Анри Декуан) [1954, детектив, мелодрама, DVDRip] [VO (SATKUR)] + [Original (Fre)]+[Sub] торрент без регистрации

 
Статистика раздачи
Размер:  1,49 GB   |    Скачан:  97 раз
Сидов:  1  [  0 KB/s  ]  
 
Автор Сообщение

Marsianka

[] 

Интриганы / Интриганки / Les Intrigantes
Страна: Франция
Жанр: детектив, мелодрама
Год выпуска: 1954
Продолжительность: 01:32:58
Перевод: Одноголосый закадровый SATKUR
Cубтитры: нет
Оригинальная аудиодорожка: французский
Режиссер: Анри Декуан / Henri Decoin
В ролях: Раймон Руло, Жанна Моро, Раймон Пеллегрен, Эчика Шуро, Марсель Андре, Клод Борелли, Жак Шарон, Поль Деманж, Луи де Фюнес, Робер Ирш
Описание: В театре происходит несчастный случай, который вполне может оказаться преднамеренным убийством. Главным подозреваемым является директор театра Поль Реми (Раймон Руло), который предположительно столкнул своего партнера с верхотуры. Жена директора Мона (Жанна Моро) на время следствия прячет мужа в психиатрической клинике…
Доп. информация: Озвучено по субтитрам Антона Каптелова



Качество видео: DVDRip
Формат видео: AVI
Видео: 704x496 (1.42:1), 25 fps, XviD build 47 ~1898 kbps avg, 0.22 bit/pixel

Сэмпл
Аудио 1: 48 kHz, AC3 Dolby Digital, 2/0 (L,R) ch, ~192.00 kbps - русский
Аудио 2: 48 kHz, AC3 Dolby Digital, 2/0 (L,R) ch, ~192.00 kbps - французский
Общее
Полное имя : D:\FILM\F-2014\Disk-44\Les.intrigantes.1954.Fr.[vo.satkur+fr].AC3.Rus\Les.intrigantes.1954.Fr.[vo.satkur+fr].AC3.Rus.avi
Формат : AVI
Формат/Информация : Audio Video Interleave
Размер файла : 1,49 Гбайт
Продолжительность : 1 ч. 32 м.
Общий поток : 2297 Кбит/сек
Программа кодирования : VirtualDubModRus 1.5.10.2 (build 2542/release)
Библиотека кодирования : VirtualDubMod build 2542/release
Видео
Идентификатор : 0
Формат : MPEG-4 Visual
Профиль формата : Advanced Simple@L5
Параметр BVOP формата : 1
Параметр QPel формата : Нет
Параметр GMC формата : Без точки перехода
Параметр матрицы формата : Default (MPEG)
Идентификатор кодека : XVID
Идентификатор кодека/Подсказка : XviD
Продолжительность : 1 ч. 32 м.
Битрейт : 1899 Кбит/сек
Ширина : 704 пикселя
Высота : 496 пикселей
Соотношение сторон : 1,419
Частота кадров : 25,000 кадров/сек
Цветовое пространство : YUV
Субдискретизация насыщенности : 4:2:0
Битовая глубина : 8 бит
Тип развёртки : Прогрессивная
Метод сжатия : С потерями
Бит/(Пиксели*Кадры) : 0.218
Размер потока : 1,23 Гбайт (83%)
Библиотека кодирования : XviD 1.2.0.dev47 (UTC 2006-11-01)
Аудио #1
Идентификатор : 1
Формат : AC-3
Формат/Информация : Audio Coding 3
Расширение режима : CM (complete main)
Параметр Endianness формата : Big
Идентификатор кодека : 2000
Продолжительность : 1 ч. 32 м.
Вид битрейта : Постоянный
Битрейт : 192 Кбит/сек
Каналы : 2 канала
Расположение каналов : Front: L R
Частота : 48,0 КГц
Битовая глубина : 16 бит
Метод сжатия : С потерями
Размер потока : 128 Мбайт (8%)
Выравнивание : Разделение по промежуткам
Продолжительность промежутка : 40 мс. (1,00 видеокадр)
Время предзагрузки промежутка : 500 мс.
Аудио #2
Идентификатор : 2
Формат : AC-3
Формат/Информация : Audio Coding 3
Расширение режима : CM (complete main)
Параметр Endianness формата : Big
Идентификатор кодека : 2000
Продолжительность : 1 ч. 32 м.
Вид битрейта : Постоянный
Битрейт : 192 Кбит/сек
Каналы : 2 канала
Расположение каналов : Front: L R
Частота : 48,0 КГц
Битовая глубина : 16 бит
Метод сжатия : С потерями
Размер потока : 128 Мбайт (8%)
Выравнивание : Разделение по промежуткам
Продолжительность промежутка : 40 мс. (1,00 видеокадр)
Время предзагрузки промежутка : 500 мс.



Скачать Интриганы.Интриганки.Les.Intrigantes.(Анри.Декуан).[1954.детектив.мелодрама.DVDRip].[VO.(SATKUR)].+.[Original.(Fre)]+[Sub].torrent без регистрации
Золото ЗОЛОТАЯ РАЗДАЧА! СКАЧАННОЕ НЕ ЗАСЧИТЫВАЕТСЯ! Золото
Дата: Зарегистрирован   [ Тип: внутренний ] Как тут cкачать?
MAGNET ссылка
MAGNET ссылка


Скачать .torrent

16 KB

Статус: проверено DHT
Скачан: торрент - 97 раз, раздача полностью - 2 раз
Размер: 1,49 GB
Оценка:  - (Голосов: 0)
Поблагодарили: 0
Поделиться ссылкой на эту раздачу с друзьями:
В контактеFacebookОдноклассникиTwitterLivejournalМой МирLiveinternet
 

 
Показать сообщения:    


Вы не можете начинать темы
Вы не можете отвечать на сообщения
Вы не можете редактировать свои сообщения
Вы не можете удалять свои сообщения
Вы не можете голосовать в опросах
Вы не можете прикреплять файлы к сообщениям
Вы можете скачивать файлы