Loading...
Error

Скачать Занимаясь любовью / Making Love (Артур Хиллер) [1982, драма, DVDRip] [MVO] + [Original (Eng)] торрент без регистрации

 
Статистика раздачи
Размер:  1,46 GB   |    Скачан:  104 раза
Сидов:  1  [  0 KB/s  ]  
 
Автор Сообщение

Marsianka

[] 

Занимаясь любовью / Making Love
Страна: США
Жанр: драма
Год выпуска: 1982
Продолжительность: 01:51:35
Перевод: Профессиональный (многоголосый закадровый)
Cубтитры: нет
Оригинальная аудиодорожка: английский
Режиссер: Артур Хиллер /Arthur Hiller
В ролях: Майкл Онткин, Кейт Джексон, Гарри Хэмлин, Уэнди Хиллер, Артур Хилл, Нэнси Олсон, Джон Дукакис, Терри Кайзер, Дэннис Ховард
Описание: Преуспевающий молодый врач из Лос-Анжелеса и его не менее преуспевающая жена — телепродюсер после 8 лет семейной жизни осознают, что эта самая их совместная жизнь — под угрозой. В их комфортную жизнь врывается парень по имени Барт — писатель, который пробуждает в Заке неведомые ранее чувства.
Зак начинает осознавать свою гомосексуальность. Зак перестает обедать с женой, чтобы иметь возможность встречаться с Бартом. А Барт держит его на расстоянии. Отлучки Зака становятся все более частыми и Клэр, его жена, начинает думать, что у того интрижка с другой женщиной. Не получая взаимности от Барта и впервые в жизни чувствуя себя одиноким в семейной жизни, Зак решает сказать Клэр правду. Клэр, конечно же, шокирована тем, что так мало знала о человеке, с которым прожила 8 лет и обвиняет Зака в том, что он все 8 лет скрывал от нее правду…



Качество видео: DVDRip -
Формат видео: AVI
Видео: 720x384 (1.88:1), 23.976 fps, XviD, 1478 kbps, 0.22 bit/pixel

Сэмпл
Аудио 1: 48 kHz, AC3 Dolby Digital, 2/0 (L,R) ch, 192 kbps, MVO
Аудио 2: 48 kHz, AC3 Dolby Digital, 2/0 (L,R) ch, 192 kbps, Original (Eng)
General
Complete name : G:\Раздачи на torrents.org\Zanimajas_lubovyu_1.46_by_max1wq.avi
Format : AVI
Format/Info : Audio Video Interleave
File size : 1.46 GiB
Duration : 1h 51mn
Overall bit rate : 1 877 Kbps
Writing application : VirtualDubMod 1.5.10.2 (build 2540/release)
Writing library : VirtualDubMod build 2540/release
Video
ID : 0
Format : MPEG-4 Visual
Format profile : Advanced Simple@L5
Format settings, BVOP : 2
Format settings, QPel : No
Format settings, GMC : No warppoints
Format settings, Matrix : Custom
Codec ID : XVID
Codec ID/Hint : XviD
Duration : 1h 51mn
Bit rate : 1 479 Kbps
Width : 720 pixels
Height : 384 pixels
Display aspect ratio : 1.85:1
Frame rate : 23.976 fps
Color space : YUV
Chroma subsampling : 4:2:0
Bit depth : 8 bits
Scan type : Progressive
Compression mode : Lossy
Bits/(Pixel*Frame) : 0.223
Stream size : 1.15 GiB (79%)
Writing library : XviD 65
Audio #1
ID : 1
Format : AC-3
Format/Info : Audio Coding 3
Mode extension : CM (complete main)
Format settings, Endianness : Big
Codec ID : 2000
Duration : 1h 51mn
Bit rate mode : Constant
Bit rate : 192 Kbps
Channel(s) : 2 channels
Channel positions : Front: L R
Sampling rate : 48.0 KHz
Bit depth : 16 bits
Compression mode : Lossy
Stream size : 153 MiB (10%)
Alignment : Split accross interleaves
Interleave, duration : 42 ms (1.00 video frame)
Interleave, preload duration : 500 ms
Audio #2
ID : 2
Format : AC-3
Format/Info : Audio Coding 3
Mode extension : CM (complete main)
Format settings, Endianness : Big
Codec ID : 2000
Duration : 1h 51mn
Bit rate mode : Constant
Bit rate : 192 Kbps
Channel(s) : 2 channels
Channel positions : Front: L R
Sampling rate : 48.0 KHz
Bit depth : 16 bits
Compression mode : Lossy
Stream size : 153 MiB (10%)
Alignment : Split accross interleaves
Interleave, duration : 42 ms (1.00 video frame)
Interleave, preload duration : 500 ms



Скачать Занимаясь.любовью.Making.Love.(Артур.Хиллер).[1982.драма.DVDRip].[MVO].+.[Original.(Eng)].torrent без регистрации
Золото ЗОЛОТАЯ РАЗДАЧА! СКАЧАННОЕ НЕ ЗАСЧИТЫВАЕТСЯ! Золото
Дата: Зарегистрирован   [ Тип: внутренний ] Как тут cкачать?
MAGNET ссылка
MAGNET ссылка


Скачать .torrent

15 KB

Статус: проверено DHT
Скачан: торрент - 104 раз, раздача полностью - 1 раз
Размер: 1,46 GB
Оценка:  - (Голосов: 0)
Поблагодарили: 0
Поделиться ссылкой на эту раздачу с друзьями:
В контактеFacebookОдноклассникиTwitterLivejournalМой МирLiveinternet
 

 
Показать сообщения:    


Вы не можете начинать темы
Вы не можете отвечать на сообщения
Вы не можете редактировать свои сообщения
Вы не можете удалять свои сообщения
Вы не можете голосовать в опросах
Вы не можете прикреплять файлы к сообщениям
Вы можете скачивать файлы