Loading...
Error

Скачать Итальянская мафия / Lookin' Italian (Гай Мэгар) [1994, криминал, драма, DVDRip] [AVO (Юрий Сербин)] торрент без регистрации

 
Статистика раздачи
Размер:  1,02 GB   |    Скачан:  144 раза
Сидов:  1  [  0 KB/s  ]  
 
Автор Сообщение

Marsianka

[] 

Итальянская мафия / Lookin' Italian
Страна: США
Жанр: криминал, драма
Год выпуска: 1994
Продолжительность: 01:37:01
Перевод: Авторский (одноголосый закадровый) Юрий Сербин
Cубтитры: нет
Оригинальная аудиодорожка: нет
Режиссер: Гай Мэгар / Guy Magar
В ролях: Джей Аковоне, Мэтт ЛеБлан, Стефани Ричардс, Лу Роулз, Джон ЛаМотта, Ральф Манза
Описание: Винни, выходец из Италии, нашел свою вторую семью в Нью - Йоркском мафиозном клане. Отработав много лет наемным убийцей, он был вынужден уйти на покой. Но старые преступные связи не отпускают на свободу.
Когда руки в крови, а души убиенных тяжелым грузом лежат на сердце, смерть будет долго идти по твоему следу. Но бывший мафиози превратился в тихого забитого человека, который готов сделать всё что угодно, только бы не брать в руки оружие…



Качество видео: DVDRip
Формат видео: AVI
Видео: 720x540, 25.000 fps, MPEG-4 Visual, 1300 Kbps
Аудио: 48 KHz, AC3, 2 ch, 192 Kbps
Сэмпл
Видеоряд с Синемагеддона.
За звуковую дорожку с переводом Юрия Сербина с лицензионной VHS от компании "Пирамида" большое спасибо team_6strun.
За видеоряд, синхронизацию звуковой дороги и работу со звуком огромная благодарность ale_x2008.
General
Complete name : C:\Users\Сергей\Downloads\Итальянская мафия.avi
Format : AVI
Format/Info : Audio Video Interleave
File size : 1.02 GiB
Duration : 1h 37mn
Overall bit rate : 1 502 Kbps
Writing application : VirtualDubMod 1.5.10.3 (build 2550/release)
Writing library : VirtualDubMod build 2550/release
Video
ID : 0
Format : MPEG-4 Visual
Format profile : Simple@L1
Format settings, BVOP : No
Format settings, QPel : No
Format settings, GMC : No warppoints
Format settings, Matrix : Default (H.263)
Codec ID : DX50
Codec ID/Hint : DivX 5
Duration : 1h 37mn
Bit rate : 1 300 Kbps
Width : 720 pixels
Height : 540 pixels
Display aspect ratio : 4:3
Frame rate : 25.000 fps
Color space : YUV
Chroma subsampling : 4:2:0
Bit depth : 8 bits
Scan type : Progressive
Compression mode : Lossy
Bits/(Pixel*Frame) : 0.134
Stream size : 902 MiB (87%)
Writing library : DigiArty AV Encoder Core
Audio
ID : 1
Format : AC-3
Format/Info : Audio Coding 3
Mode extension : CM (complete main)
Format settings, Endianness : Big
Codec ID : 2000
Duration : 1h 37mn
Bit rate mode : Constant
Bit rate : 192 Kbps
Channel(s) : 2 channels
Channel positions : Front: L R
Sampling rate : 48.0 KHz
Bit depth : 16 bits
Compression mode : Lossy
Stream size : 133 MiB (13%)
Alignment : Split accross interleaves
Interleave, duration : 40 ms (1.00 video frame)
Interleave, preload duration : 500 ms



Скачать Итальянская.мафия.Lookin'.Italian.(Гай.Мэгар).[1994.криминал.драма.DVDRip].[AVO.(Юрий.Сербин)].torrent без регистрации
Золото ЗОЛОТАЯ РАЗДАЧА! СКАЧАННОЕ НЕ ЗАСЧИТЫВАЕТСЯ! Золото
Дата: Зарегистрирован   [ Тип: внутренний ] Как тут cкачать?
MAGNET ссылка
MAGNET ссылка


Скачать .torrent

11 KB

Статус: проверено DHT
Скачан: торрент - 144 раз, раздача полностью - 4 раз
Размер: 1,02 GB
Оценка:  - (Голосов: 0)
Поблагодарили: 0
Поделиться ссылкой на эту раздачу с друзьями:
В контактеFacebookОдноклассникиTwitterLivejournalМой МирLiveinternet
 

 
Показать сообщения:    


Вы не можете начинать темы
Вы не можете отвечать на сообщения
Вы не можете редактировать свои сообщения
Вы не можете удалять свои сообщения
Вы не можете голосовать в опросах
Вы не можете прикреплять файлы к сообщениям
Вы можете скачивать файлы