Loading...
Error

Скачать Шоу Трумана / The Truman Show (Питер Уир) [1998, фантастика, драма, комедия, BDRip] [MVO (ТК "Россия")] + [VO (Неизвестный)] торрент без регистрации

 
Статистика раздачи
Размер:  1,44 GB   |    Скачан:  153 раза
Сидов:  1  [  0 KB/s  ]  
 
Автор Сообщение

Marsianka

[] 

Шоу Трумана / The Truman Show
Страна: США
Жанр: фантастика, драма, комедия
Год выпуска: 1998
Продолжительность: 01:42:56
Перевод: Профессиональный (многоголосый закадровый) ТК "Россия"
Перевод 2: Одноголосый закадровый Неизвестный
Cубтитры: нет
Режиссер: Питер Уир / Peter Weir
В ролях: Джим Керри, Лора Линни, Ноа Эммерик, Наташа МакЭлхоун, Эд Харрис, Холланд Тейлор, Брайан Дилейт, Пол Джаматти, Филип Бейкер Холл, Блэр Слэйтер
Описание: Представьте себе, что вы вдруг начинаете понимать, что все вокруг вас — декорации, а люди — актеры, притворяющиеся теми, кем они вам кажутся. Весь ваш мир оказывается большим телесериалом, где вы исполняете главную роль, даже не подозревая об этом. Вся ваша жизнь — результат работы автора телешоу, которое вот уже тридцать лет смотрит вся планета, начиная с момента вашего рождения.
В такой ситуации оказался Труман, главный герой картины. Будет ли он продолжать жить в безопасном мире, где, как он теперь знает, у него практически нет свободы выбора, или все-таки выйдет из «игры» и станет сам хозяином своей судьбы, в которой его ждет не запланированная сценарием девушка?



Доп. Информация:
Видео с переводом ТК "Россия" Перевод Неизвестного (с экранки) от .
Качество видео: BDRip
Формат видео: AVI
Видео: XviD, 704x400 (16:9), 23.976 fps, 1567 kbps avg
Аудио:
1 - 48 khz, MPEG Layer 3, 2/0 (L,R) ch, ~224 kbps [ТК "Россия"] VHSRip
2 - 48 khz, AC3 Dolby Digital, 2/0 (L,R) ch, ~192 kbps [Неизвестный] VHSRip

СЭМПЛ
Общее
Полное имя : E:\Альберт\Downloads\Шоу Трумана.avi
Формат : AVI
Формат/Информация : Audio Video Interleave
Размер файла : 1,44 Гбайт
Продолжительность : 1 ч. 42 м.
Общий поток : 1997 Кбит/сек
Режиссёр : zim2001
Программа кодирования : VirtualDubMod 1.5.10.2 (build 2540/release)
Библиотека кодирования : VirtualDubMod build 2540/release
Видео
Идентификатор : 0
Формат : MPEG-4 Visual
Профиль формата : Advanced Simple@L5
Параметр BVOP формата : 1
Параметр QPel формата : Нет
Параметр GMC формата : Без точки перехода
Параметр матрицы формата : Выборочная
Идентификатор кодека : XVID
Идентификатор кодека/Подсказка : XviD
Продолжительность : 1 ч. 42 м.
Битрейт : 1567 Кбит/сек
Ширина : 704 пикселя
Высота : 400 пикселей
Соотношение сторон : 16:9
Частота кадров : 23,976 кадра/сек
Цветовое пространство : YUV
Субдискретизация насыщенности : 4:2:0
Битовая глубина : 8 бит
Тип развёртки : Прогрессивная
Метод сжатия : С потерями
Бит/(Пиксели*Кадры) : 0.232
Размер потока : 1,13 Гбайт (78%)
Библиотека кодирования : XviD 1.2.1 (UTC 2008-12-04)
Аудио #1
Идентификатор : 1
Формат : MPEG Audio
Версия формата : Version 1
Профиль формата : Layer 3
Режим : Joint stereo
Идентификатор кодека : 55
Идентификатор кодека/Подсказка : MP3
Продолжительность : 1 ч. 42 м.
Вид битрейта : Постоянный
Битрейт : 224 Кбит/сек
Каналы : 2 канала
Частота : 48,0 КГц
Метод сжатия : С потерями
Размер потока : 165 Мбайт (11%)
Выравнивание : Соединение по промежуткам
Продолжительность промежутка : 42 мс. (1,00 видеокадр)
Время предзагрузки промежутка : 504 мс.
Аудио #2
Идентификатор : 2
Формат : AC-3
Формат/Информация : Audio Coding 3
Расширение режима : CM (complete main)
Параметр Endianness формата : Big
Идентификатор кодека : 2000
Продолжительность : 1 ч. 42 м.
Вид битрейта : Постоянный
Битрейт : 192 Кбит/сек
Каналы : 2 канала
Расположение каналов : Front: L R
Частота : 48,0 КГц
Битовая глубина : 16 бит
Метод сжатия : С потерями
Размер потока : 141 Мбайт (10%)
Выравнивание : Разделение по промежуткам
Продолжительность промежутка : 42 мс. (1,00 видеокадр)
Время предзагрузки промежутка : 500 мс.



Скачать Шоу.Трумана.The.Truman.Show.(Питер.Уир).[1998.фантастика.драма.комедия.BDRip].[MVO.(ТК."Россия")].+.[VO.(Неизвестный)].torrent без регистрации
Золото ЗОЛОТАЯ РАЗДАЧА! СКАЧАННОЕ НЕ ЗАСЧИТЫВАЕТСЯ! Золото
Дата: Зарегистрирован   [ Тип: внутренний ] Как тут cкачать?
MAGNET ссылка
MAGNET ссылка


Скачать .torrent

15 KB

Статус: проверено DHT
Скачан: торрент - 153 раз, раздача полностью - 140 раз
Размер: 1,44 GB
Оценка:  5 (Голосов: 2)
Поблагодарили: 2
Поделиться ссылкой на эту раздачу с друзьями:
В контактеFacebookОдноклассникиTwitterLivejournalМой МирLiveinternet
 

 
Показать сообщения:    


Вы не можете начинать темы
Вы не можете отвечать на сообщения
Вы не можете редактировать свои сообщения
Вы не можете удалять свои сообщения
Вы не можете голосовать в опросах
Вы не можете прикреплять файлы к сообщениям
Вы можете скачивать файлы