Loading...
Error

Скачать Работяга / The Working Man (Джон Г. Адольфи / John G. Adolfi) [1933, комедия, DVDRip] [AVO] (Юрий Сербин) + [VO] (minyaev) + [Orig] Eng торрент без регистрации

 
Статистика раздачи
Размер:  839 MB   |    Скачан:  107 раз
Сидов:  1  [  0 KB/s  ]  
 
Автор Сообщение

leon030982

[] 

Работяга / The Working Man

Год выпуска: 1933
Страна: США
Жанр: комедия
Продолжительность: 01:17:31
Перевод 1: Авторский (одноголосый закадровый) - Юрий Сербин
Перевод 2: Одноголосый (закадровый) - minyaev
Cубтитры: нет
Оригинальная аудиодорожка: английская

Режиссер: Джон Г. Адольфи / John G. Adolfi

В ролях: Джордж Арлисс, Бетт Дэвис, Теодор Ньютон, Харди Олбрайт, Гордон Весткотт, Дж. Фаррелл МакДональд, Чарльз Э. Эванс, Фредерик Бертон, Пэт Уинг, Эдвард Ван Слоун

Описание: Джон Ривз - глава крупной обувной компании узнает, что умер его главный конкурент. Он понимает, что теперь больше не с кем соперничать и решает «плюнуть на все» и уехать на бессрочную рыбалку. Руководство бизнесом он оставляет своему племяннику. На рыбалке он случайно, представившись другим именем, знакомится с сыном и дочерью, умершего конкурента. Что же он видит: дети беспечно прожигают жизнь в загулах и веселье, а бизнес покойного отца отдан в лапы хитрых менеджеров. Мистер Ривз решает помочь сиротам увидеть настоящий смысл в жизни - т.е. самостоятельно продолжить бизнес отца...
Сэмпл

Качество: DVDRip
Формат видео: AVI
Видео кодек: XviD
Аудио кодек: MP3
Видео: 560x416 (1.35:1), 23.976 fps, XviD build 73 ~1119 kbps avg, 0.20 bit/pixel
Аудио 1: 48 kHz, MPEG Layer 3, 2 ch, ~128.00 kbps avg [Юрий Сербин]
Аудио 2: 48 kHz, MPEG Layer 3, 2 ch, ~128.00 kbps avg [minyaev]
Аудио 3: 48 kHz, MPEG Layer 3, 2 ch, ~128.00 kbps avg [оригинал]
БОЛЬШОЕ СПАСИБО:
За исходный DVD - - Магда

Перевод и озвучивание фильма - Юрий Сербин
За ещё один вариант перевода - minyaev
Работа со звуком и реавторинг DVD - AlekceyR76А также Огромное Спасибо всем, без кого этот проект по переводу и озвучке не был бы осуществлён:
Магда, jasenka, lafajet, atomic dragonfly, denis_mgn_1987, zeleniydzhan, Владимир_ptz,
HippopotamusIV, sveta_pula, Kampfer161, mumzik69, duum100, homowalrus, yanaelisa
AVI-файл:
General
Complete name : ... \The Working Man 1933 700MB\The Working Man.avi
Format : AVI
Format/Info : Audio Video Interleave
File size : 697 MiB
Duration : 1h 17mn
Overall bit rate : 1 257 Kbps
Writing application : VirtualDubMod 1.5.10.3 | www.virtualdub-fr.org || (build 2550/release)
Writing library : VirtualDubMod build 2550/release
Video
ID : 0
Format : MPEG-4 Visual
Format profile : Advanced Simple@L5
Format settings, BVOP : 2
Format settings, QPel : No
Format settings, GMC : No warppoints
Format settings, Matrix : Default (H.263)
Codec ID : DX50
Codec ID/Hint : DivX 5
Duration : 1h 17mn
Bit rate : 1 120 Kbps
Width : 560 pixels
Height : 416 pixels
Display aspect ratio : 4:3
Frame rate : 23.976 fps
Color space : YUV
Chroma subsampling : 4:2:0
Bit depth : 8 bits
Scan type : Progressive
Compression mode : Lossy
Bits/(Pixel*Frame) : 0.200
Stream size : 621 MiB (89%)
Writing library : XviD 73
Audio
ID : 1
Format : MPEG Audio
Format version : Version 1
Format profile : Layer 3
Codec ID : 55
Codec ID/Hint : MP3
Duration : 1h 17mn
Bit rate mode : Constant
Bit rate : 128 Kbps
Channel(s) : 2 channels
Sampling rate : 48.0 KHz
Compression mode : Lossy
Stream size : 71.0 MiB (10%)
Alignment : Aligned on interleaves
Interleave, duration : 42 ms (1.00 video frame)
Interleave, preload duration : 504 ms
Writing library : LAME3.99r
Encoding settings : -m s -V 4 -q 0 -lowpass 17 -b 128
дорожка с русским одноголосым закадровым переводом, лежит отдельно:
General
Complete name : ... \The Working Man 1933 700MB\The Working Man.VO.mp3
Format : MPEG Audio
File size : 71.0 MiB
Duration : 1h 17mn
Overall bit rate mode : Constant
Overall bit rate : 128 Kbps
Writing library : LAME3.99r
Audio
Format : MPEG Audio
Format version : Version 1
Format profile : Layer 3
Duration : 1h 17mn
Bit rate mode : Constant
Bit rate : 128 Kbps
Channel(s) : 2 channels
Sampling rate : 48.0 KHz
Compression mode : Lossy
Stream size : 71.0 MiB (100%)
Writing library : LAME3.99r
Encoding settings : -m s -V 4 -q 0 -lowpass 17 -b 128
английская оригинальная дорожка, лежит отдельно:
General
Complete name : ... \The Working Man 1933 700MB\The Working Man.ENG.mp3
Format : MPEG Audio
File size : 71.0 MiB
Duration : 1h 17mn
Overall bit rate mode : Constant
Overall bit rate : 128 Kbps
Writing library : LAME3.99r
Audio
Format : MPEG Audio
Format version : Version 1
Format profile : Layer 3
Duration : 1h 17mn
Bit rate mode : Constant
Bit rate : 128 Kbps
Channel(s) : 2 channels
Sampling rate : 48.0 KHz
Compression mode : Lossy
Stream size : 71.0 MiB (100%)
Writing library : LAME3.99r
Encoding settings : -m s -V 4 -q 0 -lowpass 17 -b 128



Скачать Работяга.The.Working.Man.(Джон.Г.Адольфи.John.G.Adolfi).[1933.комедия.DVDRip].[AVO].(Юрий.Сербин).+.[VO].(minyaev).+.[Orig].Eng.torrent без регистрации
Золото ЗОЛОТАЯ РАЗДАЧА! СКАЧАННОЕ НЕ ЗАСЧИТЫВАЕТСЯ! Золото
Дата: Зарегистрирован   [ Тип: внутренний ] Как тут cкачать?
MAGNET ссылка
MAGNET ссылка


Скачать .torrent

17 KB

Статус: проверено DHT
Скачан: торрент - 107 раз, раздача полностью - 0 раз
Размер: 839 MB
Оценка:  - (Голосов: 0)
Поблагодарили: 0
Поделиться ссылкой на эту раздачу с друзьями:
В контактеFacebookОдноклассникиTwitterLivejournalМой МирLiveinternet
 

 
Показать сообщения:    


Вы не можете начинать темы
Вы не можете отвечать на сообщения
Вы не можете редактировать свои сообщения
Вы не можете удалять свои сообщения
Вы не можете голосовать в опросах
Вы не можете прикреплять файлы к сообщениям
Вы можете скачивать файлы