Loading...
Error

Скачать Корпорация Бессмертие / Freejack (Джеф Мерфи / Geoff Murphy) [1992, фантастика, боевик, триллер, DVDRip] 3x[AVO] + [Dub] + [Sub rus, eng] + [Orig] eng торрент без регистрации

 
Статистика раздачи
Размер:  2,36 GB   |    Скачан:  104 раза
Сидов:  1  [  0 KB/s  ]  
 
Автор Сообщение

leon030982

[] 

Корпорация Бессмертие / Freejack


Год выпуска: 1992
Страна: США
Жанр: фантастика, боевик, триллер
Продолжительность: 01:49:31
Перевод: Авторский (одноголосый, закадровый)- Ю.Сербин
Перевод: Авторский (одноголосый, закадровый)- не определен- отдельно
Перевод: Авторский (одноголосый, закадровый)- А.Гаврилов- отдельно
Перевод: Профессиональный (дублированный)- отдельно
Cубтитры: русские, английские - отдельно
Оригинальная аудиодорожка: английский- отдельно

Режиссер: Джеф Мерфи / Geoff Murphy

В ролях: Эмилио Эстевез / Emilio Estevez, Мик Джаггер / Mick Jagger, Рене Руссо / Rene Russo, Энтони Хопкинс / Anthony Hopkins, Джонатан Бэнкс / Jonathan Banks, Дэвид Джохансен / David Johansen, Аманда Пламмер / Amanda Plummer, Гранд Л. Буш / Grand L. Bush, Фрэнки Фэйзон / Frankie Faison, Джон Ши / John Shea

Описание: Алекс Ферлонг, гонщик, разбился во время ралли. Смерть стала новым стартом. Преодолев 18 лет за доли секунды, он финишировал в 2009 году. Осмотреться в «дивном, новом мире» некогда. Здесь идут гонки на выживание. Охоту на Алекса возглавляет Мик Джаггер. «Заказал» Алекса Энтони Хопкинс. В будущем супербогатые не умирают. Их души имплантируются в тела других людей. Алекс предназначен стать биологическим контейнером для души крупного чиновника — шефа корпорации, подчинившей себе весь мир.



Качество: DVDRip
Формат: AVI
Видео кодек: XviD
Аудио кодек: AC3
Видео: 720x304 (2.37:1), 23.976 fps, XviD build 50 ~1510 kbps avg, 0.29 bit/pixel
Аудио: 48 kHz, AC3 Dolby Digital, 3/2 (L,C,R,l,r) + LFE ch, ~384 kbps - Сербин
Аудио: 48 kHz, AC3 Dolby Digital, 3/2 (L,C,R,l,r) + LFE ch, ~384 kbps - не определен- отдельно
Аудио: 48 kHz, AC3 Dolby Digital, 2/0 (L,R) ch, 192.00 kbps - Гаврилов- отдельно
Аудио: 48 kHz, AC3 Dolby Digital, 2/0 (L,R) ch, 224.00 kbps - Дубляж- отдельно
Аудио: 48 kHz, AC3 Dolby Digital, 3/2 (L,C,R,l,r) + LFE ch, ~384 kbps - Английский- отдельно

Автор рипа chopper887
General
Complete name : E:\INTERNET\Beglec.chopper887\Beglec.chopper887.avi
Format : AVI
Format/Info : Audio Video Interleave
File size : 1.46 GiB
Duration : 1h 49mn
Overall bit rate : 1 904 Kbps
Movie name : Beglec.chopper887
Director : chopper887
Writing application : VirtualDubMod 1.5.10.2 (build 2540/release)

Video
ID : 0
Format : MPEG-4 Visual
Format profile : Advanced Simple@L5
Format settings, BVOP : 2
Format settings, QPel : No
Format settings, GMC : No warppoints
Format settings, Matrix : Custom
Codec ID : XVID
Codec ID/Hint : XviD
Duration : 1h 49mn
Bit rate : 1 511 Kbps
Width : 720 pixels
Height : 304 pixels
Display aspect ratio : 2.35:1
Frame rate : 23.976 fps
Color space : YUV
Chroma subsampling : 4:2:0
Bit depth : 8 bits
Scan type : Progressive
Compression mode : Lossy
Bits/(Pixel*Frame) : 0.288
Stream size : 1.16 GiB (79%)
Writing library : XviD 1.2.1 (UTC 2008-12-04)

Audio
ID : 1
Format : AC-3
Format/Info : Audio Coding 3
Mode extension : CM (complete main)
Codec ID : 2000
Duration : 1h 49mn
Bit rate mode : Constant
Bit rate : 384 Kbps
Channel(s) : 6 channels
Channel positions : Front: L C R, Side: L R, LFE
Sampling rate : 48.0 KHz
Bit depth : 16 bits
Compression mode : Lossy
Stream size : 301 MiB (20%)
Alignment : Split accross interleaves
Interleave, duration : 42 ms (1.00 video frame)
Interleave, preload duration : 500 ms



Скачать Корпорация.Бессмертие.Freejack.(Джеф.Мерфи.Geoff.Murphy).[1992.фантастика.боевик.триллер.DVDRip].3x[AVO].+.[Dub].+.[Sub.rus.eng].+.[Orig].eng.torrent без регистрации
Золото ЗОЛОТАЯ РАЗДАЧА! СКАЧАННОЕ НЕ ЗАСЧИТЫВАЕТСЯ! Золото
Дата: Зарегистрирован   [ Тип: внутренний ] Как тут cкачать?
MAGNET ссылка
MAGNET ссылка


Скачать .torrent

13 KB

Статус: проверено DHT
Скачан: торрент - 104 раз, раздача полностью - 5 раз
Размер: 2,36 GB
Оценка:  - (Голосов: 0)
Поблагодарили: 1
Поделиться ссылкой на эту раздачу с друзьями:
В контактеFacebookОдноклассникиTwitterLivejournalМой МирLiveinternet
 

 
Показать сообщения:    


Вы не можете начинать темы
Вы не можете отвечать на сообщения
Вы не можете редактировать свои сообщения
Вы не можете удалять свои сообщения
Вы не можете голосовать в опросах
Вы не можете прикреплять файлы к сообщениям
Вы можете скачивать файлы