Loading...
Error

Скачать Анаконда / Anaconda (Луис Ллоса / Luis Llosa ) [1997 г., боевик, триллер, приключения, HDRip] [AVO] (А.Гаврилов) торрент без регистрации

 
Статистика раздачи
Размер:  1,46 GB   |    Скачан:  122 раза
Сидов:  1  [  0 KB/s  ]  
 
Автор Сообщение

leon030982

[] 

Анаконда / Anaconda
«Вы не сможете кричать, если нечем дышать.»

Год выпуска: 1997
Страна: США, Бразилия, Перу
Жанр: боевик, триллер, приключения
Продолжительность: 01:29:20
Перевод: Авторский (одноголосый, закадровый) [А.Гаврилов]
Субтитры: нет

Режиссер: Луис Ллоса / Luis Llosa

В ролях: Дженнифер Лопез, Айс Кьюб, Джон Войт, Эрик Штольц, Джонатан Хайд, Оуэн Уилсон, Кари Вурер, Винсент Кастелланос, Дэнни Трехо, Фрэнк Уэлкер
О фильме: Команда исследователей отправляется на поиски затерянных индейских племен в самое сердце таинственных джунглей Амазонки. Наслаждаясь пейзажами великой реки, они не подозревают, что их проводник — сумасшедший охотник, помешавшийся на идее поймать гигантскую змею.
Никто не верит его рассказам о мистическом хищнике, пока не появляется первая жертва, и их путешествие превращается в борьбу за выживание. Анаконда не ждет охотников, она сама — охотник.



Качество: HDRip [Исх. BDRip 1080]
Формат: AVI
Видео кодек: XviD
Аудио кодек: AC3
Видео: 720x304 (2.37:1), 23.976 fps, XviD build 50 ~1949 kbps avg, 0.37 bit/pixel
Аудио: 48 kHz, AC3 Dolby Digital, 3/2 (L,C,R,l,r) + LFE ch, ~384 kbps
Для съёмки использовались с десяток живых змей, две механические змеи весом под тонну и, разумеется, неисчислимое количество виртуальных.
General
Complete name : E:\INTERNET\Anaconda.avi
Format : AVI
Format/Info : Audio Video Interleave
File size : 1.46 GiB
Duration : 1h 29mn
Overall bit rate : 2 343 Kbps

Video
ID : 0
Format : MPEG-4 Visual
Format profile : Advanced Simple@L5
Format settings, BVOP : 1
Format settings, QPel : No
Format settings, GMC : No warppoints
Format settings, Matrix : Default (MPEG)
Codec ID : XVID
Codec ID/Hint : XviD
Duration : 1h 29mn
Bit rate : 1 857 Kbps
Width : 720 pixels
Height : 304 pixels
Display aspect ratio : 2.35:1
Frame rate : 23.976 fps
Color space : YUV
Chroma subsampling : 4:2:0
Bit depth : 8 bits
Scan type : Progressive
Compression mode : Lossy
Bits/(Pixel*Frame) : 0.354
Stream size : 1.16 GiB (79%)
Writing library : XviD 1.2.1 (UTC 2008-12-04)

Audio
ID : 1
Format : AC-3
Format/Info : Audio Coding 3
Mode extension : CM (complete main)
Codec ID : 2000
Duration : 1h 29mn
Bit rate mode : Constant
Bit rate : 384 Kbps
Channel(s) : 6 channels
Channel positions : Front: L C R, Side: L R, LFE
Sampling rate : 48.0 KHz
Bit depth : 16 bits
Compression mode : Lossy
Delay relative to video : 1s 500ms
Stream size : 245 MiB (16%)
Alignment : Split accross interleaves



Скачать Анаконда.Anaconda.(Луис.Ллоса.Luis.Llosa.).[1997.г.боевик.триллер.приключения.HDRip].[AVO].(А.Гаврилов).torrent без регистрации
Золото ЗОЛОТАЯ РАЗДАЧА! СКАЧАННОЕ НЕ ЗАСЧИТЫВАЕТСЯ! Золото
Дата: Зарегистрирован   [ Тип: внутренний ] Как тут cкачать?
MAGNET ссылка
MAGNET ссылка


Скачать .torrent

15 KB

Статус: проверено DHT
Скачан: торрент - 122 раз, раздача полностью - 6 раз
Размер: 1,46 GB
Оценка:  - (Голосов: 0)
Поблагодарили: 0
Поделиться ссылкой на эту раздачу с друзьями:
В контактеFacebookОдноклассникиTwitterLivejournalМой МирLiveinternet
 

 
Показать сообщения:    


Вы не можете начинать темы
Вы не можете отвечать на сообщения
Вы не можете редактировать свои сообщения
Вы не можете удалять свои сообщения
Вы не можете голосовать в опросах
Вы не можете прикреплять файлы к сообщениям
Вы можете скачивать файлы