Loading...
Error

Скачать Жена проповедника / Жена священника / The Preacher's Wife (Пенни Маршалл) [1996, фэнтези, мелодрама, комедия, семейный, HDRip] [MVO (Нева 1)] + [MVO (Домашний)] + [Original (Eng)] торрент без регистрации

 
Статистика раздачи
Размер:  2,2 GB   |    Скачан:  113 раз
Сидов:  1  [  0 KB/s  ]  
 
Автор Сообщение

Marsianka

[] 

Жена проповедника / Жена священника / The Preacher's Wife
Страна: США
Жанр: Фэнтези, мелодрама, комедия, семейный
Год выпуска: 1996
Продолжительность: 02:03:46

Режиссер: Пенни Маршалл / Penny Marshall
В ролях: Дензел Вашингтон, Уитни Хьюстон, Кортни Б. Вэнс, Грегори Хайнс, Дженифер Льюис, Лоретта Дивайн, Джастин Пьер Эдмунд, Лайонел Ричи, Пол Бейтс, Лекс Монсон
Описание: Жена священника маленького городка действительно нуждалась в помощи — ее брак на грани распада, ее муж думает только о работе. Но то, что она получила в ответ на свои молитвы, оказалось настоящим чудом. Веселый и беззаботный ангел по имени Дадли спустился с небес, чтобы воссоединить пару. Но проходит немного времени, и он становится не решением, а источником их проблем.



Качество видео: HDRip
Формат видео: AVI
Видео: MPEG4, XviD, 720x384 (1.875), 23.976 fps, 1 747 Kbps (0.264 bit/pixel)
Перевод 1: Профессиональный (многоголосый закадровый) Нева 1
Перевод 2: Профессиональный (многоголосый закадровый) Домашний
Cубтитры: нет
Оригинальная аудиодорожка: английский
Аудио 1: AC-3, 48.0 KHz, 2 ch, 192 Kbps, CBR - Нева 1
Аудио 2: AC-3, 48.0 KHz, 2 ch, 192 Kbps, CBR - Домашний
Аудио 3: AC-3, 48.0 KHz, 6 ch, 384 Kbps, CBR - английский
Общее
Полное имя : K:\Жена проповедника.avi
Формат : AVI
Формат/Информация : Audio Video Interleave
Профиль формата : OpenDML
Размер файла : 2,20 Гбайт
Продолжительность : 2 ч. 3 м.
Общий поток : 2540 Кбит/сек
Название фильма : Жена проповедника / Жена священника / The Preacher's Wife (1996)
Режиссёр : miha2154
Программа кодирования : VirtualDubMod 1.5.10.2 (build 2540/release)
Библиотека кодирования : VirtualDubMod build 2540/release
Правообладатель : специально для BitTorrent трекер RuTracker.org (ex torrents.ru)
Видео
Идентификатор : 0
Формат : MPEG-4 Visual
Профиль формата : Advanced Simple@L5
Параметр BVOP формата : 2
Параметр QPel формата : Нет
Параметр GMC формата : Без точки перехода
Параметр матрицы формата : Default (MPEG)
Идентификатор кодека : XVID
Идентификатор кодека/Подсказка : XviD
Продолжительность : 2 ч. 3 м.
Битрейт : 1747 Кбит/сек
Ширина : 720 пикселей
Высота : 384 пикселя
Соотношение сторон : 1,85:1
Частота кадров : 23,976 кадра/сек
Цветовое пространство : YUV
Субдискретизация насыщенности : 4:2:0
Битовая глубина : 8 бит
Тип развёртки : Прогрессивная
Метод сжатия : С потерями
Бит/(Пиксели*Кадры) : 0.264
Размер потока : 1,51 Гбайт (69%)
Библиотека кодирования : XviD 1.1.0 (UTC 2005-11-22)
Аудио #1
Идентификатор : 1
Формат : AC-3
Формат/Информация : Audio Coding 3
Расширение режима : CM (complete main)
Параметр Endianness формата : Big
Идентификатор кодека : 2000
Продолжительность : 2 ч. 3 м.
Вид битрейта : Постоянный
Битрейт : 192 Кбит/сек
Каналы : 2 канала
Расположение каналов : Front: L R
Частота : 48,0 КГц
Битовая глубина : 16 бит
Метод сжатия : С потерями
Размер потока : 170 Мбайт (8%)
Выравнивание : Разделение по промежуткам
Продолжительность промежутка : 42 мс. (1,00 видеокадр)
Время предзагрузки промежутка : 500 мс.
Заголовок : Профессиональный (многоголосый закадровый) Нева 1
Аудио #2
Идентификатор : 2
Формат : AC-3
Формат/Информация : Audio Coding 3
Расширение режима : CM (complete main)
Параметр Endianness формата : Big
Идентификатор кодека : 2000
Продолжительность : 2 ч. 3 м.
Вид битрейта : Постоянный
Битрейт : 192 Кбит/сек
Каналы : 2 канала
Расположение каналов : Front: L R
Частота : 48,0 КГц
Битовая глубина : 16 бит
Метод сжатия : С потерями
Размер потока : 170 Мбайт (8%)
Выравнивание : Разделение по промежуткам
Продолжительность промежутка : 42 мс. (1,00 видеокадр)
Время предзагрузки промежутка : 500 мс.
Заголовок : Профессиональный (многоголосый закадровый) Домашний
Аудио #3
Идентификатор : 3
Формат : AC-3
Формат/Информация : Audio Coding 3
Расширение режима : CM (complete main)
Параметр Endianness формата : Big
Идентификатор кодека : 2000
Продолжительность : 2 ч. 3 м.
Вид битрейта : Постоянный
Битрейт : 384 Кбит/сек
Каналы : 6 каналов
Расположение каналов : Front: L C R, Side: L R, LFE
Частота : 48,0 КГц
Битовая глубина : 16 бит
Метод сжатия : С потерями
Размер потока : 340 Мбайт (15%)
Выравнивание : Разделение по промежуткам
Продолжительность промежутка : 42 мс. (1,00 видеокадр)
Время предзагрузки промежутка : 500 мс.
Заголовок : Английский



Скачать Жена.проповедника.Жена.священника.The.Preacher's.Wife.(Пенни.Маршалл).[1996.фэнтези.мелодрама.комедия.семейный.HDRip].[MVO.(Нева.1)].+.[MVO.(Домашний)].+.[Original.(Eng)].torrent без регистрации
Золото ЗОЛОТАЯ РАЗДАЧА! СКАЧАННОЕ НЕ ЗАСЧИТЫВАЕТСЯ! Золото
Дата: Зарегистрирован   [ Тип: внутренний ] Как тут cкачать?
MAGNET ссылка
MAGNET ссылка


Скачать .torrent

11 KB

Статус: проверено DHT
Скачан: торрент - 113 раз, раздача полностью - 1 раз
Размер: 2,2 GB
Оценка:  - (Голосов: 0)
Поблагодарили: 0
Поделиться ссылкой на эту раздачу с друзьями:
В контактеFacebookОдноклассникиTwitterLivejournalМой МирLiveinternet
 

 
Показать сообщения:    


Вы не можете начинать темы
Вы не можете отвечать на сообщения
Вы не можете редактировать свои сообщения
Вы не можете удалять свои сообщения
Вы не можете голосовать в опросах
Вы не можете прикреплять файлы к сообщениям
Вы можете скачивать файлы