Loading...
Error

Скачать Сексуальная одержимость / Зловещее наваждение / Evil Obsession (Ричард У. Манчкин) [1996, триллер, VHSRip] [AVO (Юрий Сербин)] торрент без регистрации

 
Статистика раздачи
Размер:  1,37 GB   |    Скачан:  112 раз
Сидов:  1  [  0 KB/s  ]  
 
Автор Сообщение

Marsianka

[] 

Сексуальная одержимость (Зловещее наваждение) / Evil Obsession
Страна: США
Жанр: Триллер
Год выпуска: 1996
Продолжительность: 01:26:36
Перевод: Авторский (одноголосый закадровый) - Юрий Сербин
Cубтитры: нет
Режиссер: Ричард У. Манчкин / Richard W. Munchkin
В ролях: Кори Фельдман, Кимберли Стивенс, Марк Дервин, Брайон Джеймс, Стэйси Рэндолл, Уна Дэймон, Майкл Фениси, Лорелей Лесли, Бела Лехочки, Сай Ричардсон
Описание: Обворожительную супермодель преследует одержимый поклонник, забрасывающий её письмами, источающими угрозы и патологическую страсть. Испуганная девушка начинает подозревать, что её страшный воздыхатель - серийный убийца, жестоко расправившийся с дюжиной других красавиц...
(краткая рецензия от Юрия Сербина)
Фильм конечно не супер, но МУЗЫКА !!! ( Композитор Robert O. Ragland (1931 - 2012) - драма, триллер, ужасы ) (cinemasonar)

За редактирование и наложение дорожки с переводом Юрия Сербина при помощи Sony Vegas и VirtualDubMod благодарим - ale_x2008
За изготовление VHSRip благодарим - ale_x2008
За оцифрованную VHS из личной коллекции и постер к фильму благодарим - cinemasonar
Примечание: Рип с СГ оказался урезанный на три минуты и с плохой картинкой, поэтому было решено сделать рип с уже имеющейся VHS оцифровки.
Даты выпуска: Россия - 1996(video); США - 1997(TV premiere); "Компания Пирамида-Видеосервис" - 1998(video); США - 1999(video); Германия - 2002(DVD premiere)
Качество видео: VHSRip
Формат видео: AVI
Видео: XviD build 73, 720x544 (1.32:1), 25.00 fps, 2057 kbps avg, 0.21 bit/pixel
Аудио: AC3 Dolby Digital, 48000Hz, 2/0 (L,R) ch (stereo), 192.00 kbps avg
Сэмпл
Общее
Полное имя : C:\Users\user\Downloads\Evil Obsession (Сексуальная одержимость) VHSRip Serbin.avi
Формат : AVI
Формат/Информация : Audio Video Interleave
Размер файла : 1,37 Гбайт
Продолжительность : 1 ч. 26 м.
Общий поток : 2259 Кбит/сек
Программа кодирования : VirtualDubMod 1.5.10.3 (build 2550/release)
Библиотека кодирования : VirtualDubMod build 2550/release
Видео
Идентификатор : 0
Формат : MPEG-4 Visual
Профиль формата : Advanced Simple@L5
Параметр BVOP формата : 1
Параметр QPel формата : Нет
Параметр GMC формата : Без точки перехода
Параметр матрицы формата : Default (MPEG)
Идентификатор кодека : XVID
Идентификатор кодека/Подсказка : XviD
Продолжительность : 1 ч. 26 м.
Битрейт : 2057 Кбит/сек
Ширина : 720 пикселей
Высота : 544 пикселя
Соотношение сторон : 4:3
Частота кадров : 25,000 кадров/сек
Цветовое пространство : YUV
Субдискретизация насыщенности : 4:2:0
Битовая глубина : 8 бит
Тип развёртки : Прогрессивная
Метод сжатия : С потерями
Бит/(Пиксели*Кадры) : 0.210
Размер потока : 1,24 Гбайт (91%)
Библиотека кодирования : XviD 73
Аудио
Идентификатор : 1
Формат : AC-3
Формат/Информация : Audio Coding 3
Расширение режима : CM (complete main)
Параметр Endianness формата : Big
Идентификатор кодека : 2000
Продолжительность : 1 ч. 26 м.
Вид битрейта : Постоянный
Битрейт : 192 Кбит/сек
Каналы : 2 канала
Расположение каналов : Front: L R
Частота : 48,0 КГц
Битовая глубина : 16 бит
Метод сжатия : С потерями
Размер потока : 119 Мбайт (8%)
Выравнивание : Разделение по промежуткам
Продолжительность промежутка : 40 мс. (1,00 видеокадр)
Время предзагрузки промежутка : 500 мс.



Скачать Сексуальная.одержимость.Зловещее.наваждение.Evil.Obsession.(Ричард.У.Манчкин).[1996.триллер.VHSRip].[AVO.(Юрий.Сербин)].torrent без регистрации
Золото ЗОЛОТАЯ РАЗДАЧА! СКАЧАННОЕ НЕ ЗАСЧИТЫВАЕТСЯ! Золото
Дата: Зарегистрирован   [ Тип: внутренний ] Как тут cкачать?
MAGNET ссылка
MAGNET ссылка


Скачать .torrent

14 KB

Статус: проверено DHT
Скачан: торрент - 112 раз, раздача полностью - 4 раз
Размер: 1,37 GB
Оценка:  - (Голосов: 0)
Поблагодарили: 0
Поделиться ссылкой на эту раздачу с друзьями:
В контактеFacebookОдноклассникиTwitterLivejournalМой МирLiveinternet
 

 
Показать сообщения:    


Вы не можете начинать темы
Вы не можете отвечать на сообщения
Вы не можете редактировать свои сообщения
Вы не можете удалять свои сообщения
Вы не можете голосовать в опросах
Вы не можете прикреплять файлы к сообщениям
Вы можете скачивать файлы