Loading...
Error

Скачать Человек в синем / The Boy in Blue (Чарльз Джэррот) [1986, Драма, биография, спорт, DVDRip-AVC] [KinoRay] [Sheikn] [AVO] торрент без регистрации

 
Статистика раздачи
Размер:  1,76 GB   |    Скачан:  123 раза
Сидов:  1  [  0 KB/s  ]  
 
Автор Сообщение

Sheikn

[] 

Информация о фильме
Название: Человек в синем
Оригинальное название: The Boy in Blue
Год выхода: 1986
Жанр: Драма, биография, спорт
Режиссер: Чарльз Джэррот
В ролях: Николас Кейдж, Синтия Дэйл, Кристофер Пламмер, Дэвид Нотон, Шон Салливан, Мелоди Андерсон, Джеймс Б. Дуглас, Уолтер Мэсси, Остин Уиллис, Филип Крэйг, Роберт МакКормик, Тим Вебер, Джордж Е. Зиман, Джорди Джонсон, Брайан Торн, Дон МакКуорри, Джеймс Эдмонд, Грег Суонсон, Джералд Айлз, Гордон Мастен, Брюс МакФи, Дорис Малкольм, Йен Д. Кларк, Дэн Хеннесси, Джефф Уинкотт, Эйдан Дивайн, Ли-Макс Уолтон, Роджер МакКин, Ким Коутс

О фильме: Фильм повествует о жизни канадского гребца Неда Ханлана, чья карьера стремительно началась в 1880-х годх, и резко оборвалась из-за полученной травмы ног… В этой драме, происходящей в конце XIX века и основанной на реальной истории, жизни Нэда Хэнлана (Николас Кейдж), молодого преступника, который превращается в гребца мирового класса. Увидев в Хэнлане возможность сделать легкие деньги, Билл (Девид Хотон), любитель азартных игр, решает обучить Хэнлана и содействовать ему в мировых достижениях. Со временем у Хэнлана растёт талант и слава, достигнув вершины чемпионата мира, выиграв награды на трёх континентах, он стал первым гребцом, который использовал "скользящее сидение". Но всё усложняется, когда Хэнлан становится жертвой недобросовестного предпринимателя (Кристофер Пламмер), который показал Хэнлану, какую цену иногда приходится платить за известность...



Страна: Канада / Canadian Broadcasting Corporation (CBC), Regatta Productions, Telefilm Canada
Продолжительность: 01:33:20
Перевод: Авторский одноголосый (Антон Алексеев)
Дата релиза: 14.05.2014

Файл
Кодек: MPEG-4 AVC
Качество: DVDRip (AVC)
Видео: 1024x552, 2500 Кбит/с
Звук: AC3, 2 ch, 192 Кбит/с

Семпл
Unique ID : 198657381234746121606366251154424293365 (0x957405196F51A465994CF416F86167F5)
Complete name : D:Chelovek.v.sinem.1986.x264.DVDRip.(AVC).KinoRay.(Sheikn).mkv
Format : Matroska
Format version : Version 2
File size : 1.76 GiB
Duration : 1h 33mn
Overall bit rate : 2 693 Kbps
Encoded date : UTC 2014-04-09 01:46:13
Writing application : mkvmerge v5.0.1 ('Es ist Sommer') built on Nov 6 2011 16:23:40
Writing library : libebml v1.2.2 + libmatroska v1.3.0
Video #1
ID : 1
Format : AVC
Format/Info : Advanced Video Codec
Format profile : High@L4.1
Format settings, CABAC : Yes
Format settings, ReFrames : 5 frames
Codec ID : V_MPEG4/ISO/AVC
Duration : 1h 33mn
Bit rate : 2 500 Kbps
Width : 1 024 pixels
Height : 552 pixels
Display aspect ratio : 1.85:1
Frame rate mode : Constant
Frame rate : 25.000 fps
Color space : YUV
Chroma subsampling : 4:2:0
Bit depth : 8 bits
Scan type : Progressive
Bits/(Pixel*Frame) : 0.177
Stream size : 1.60 GiB (91%)
Writing library : x264 core 119 r2106 07efeb4
Encoding settings : cabac=1 / ref=5 / deblock=1:-3:-3 / analyse=0x3:0x113 / me=hex / subme=11 / psy=1 / psy_rd=1.00:0.00 / mixed_ref=1 / me_range=16 / chroma_me=1 / trellis=2 / 8x8dct=1 / cqm=0 / deadzone=21,11 / fast_pskip=1 / chroma_qp_offset=-2 / threads=6 / sliced_threads=0 / nr=0 / decimate=1 / interlaced=0 / bluray_compat=0 / constrained_intra=0 / bframes=5 / b_pyramid=2 / b_adapt=1 / b_bias=0 / direct=1 / weightb=1 / open_gop=0 / weightp=2 / keyint=240 / keyint_min=20 / scenecut=40 / intra_refresh=0 / rc_lookahead=40 / rc=2pass / mbtree=1 / bitrate=2500 / ratetol=1.0 / qcomp=0.60 / qpmin=0 / qpmax=69 / qpstep=4 / cplxblur=20.0 / qblur=0.5 / ip_ratio=1.40 / aq=1:1.00
Default : Yes
Forced : No
Audio #2
ID : 2
Format : AC-3
Format/Info : Audio Coding 3
Mode extension : CM (complete main)
Format settings, Endianness : Big
Codec ID : A_AC3
Duration : 1h 33mn
Bit rate mode : Constant
Bit rate : 192 Kbps
Channel(s) : 2 channels
Channel positions : Front: L R
Sampling rate : 48.0 KHz
Bit depth : 16 bits
Compression mode : Lossy
Stream size : 128 MiB (7%)
Default : Yes
Forced : No
Огромная благодарность за исходник Ibraghim и AVProh
Релиз от:



Скачать Человек.в.синем.The.Boy.in.Blue.(Чарльз.Джэррот).[1986.Драма.биография.спорт.DVDRip-AVC].[KinoRay].[Sheikn].[AVO].torrent без регистрации
Золото ЗОЛОТАЯ РАЗДАЧА! СКАЧАННОЕ НЕ ЗАСЧИТЫВАЕТСЯ! Золото
Дата: Зарегистрирован   [ Тип: внутренний ] Как тут cкачать?
MAGNET ссылка
MAGNET ссылка


Скачать .torrent

18 KB

Статус: проверено DHT
Скачан: торрент - 123 раз, раздача полностью - 0 раз
Размер: 1,76 GB
Оценка:  - (Голосов: 0)
Поблагодарили: 1
Поделиться ссылкой на эту раздачу с друзьями:
В контактеFacebookОдноклассникиTwitterLivejournalМой МирLiveinternet
 

 
Показать сообщения:    


Вы не можете начинать темы
Вы не можете отвечать на сообщения
Вы не можете редактировать свои сообщения
Вы не можете удалять свои сообщения
Вы не можете голосовать в опросах
Вы не можете прикреплять файлы к сообщениям
Вы можете скачивать файлы