Loading...
Error

Скачать Смертельная Битва / Mortal Kombat (Пол Андерсон) [1995, фэнтази, приключения, фантастика, боевик, триллер, BDRip-AVC] [MVO (ОРТ)] торрент без регистрации

 
Статистика раздачи
Размер:  725 MB   |    Скачан:  184 раза

Полного источника не было: 20 минут

 
Автор Сообщение

Marsianka

[] 

Смертельная Битва / Mortal Kombat

Страна: США
Жанр: фэнтази, приключения, фантастика, боевик, триллер
Год выпуска: 1995
Продолжительность: 01:41:25
Перевод: Профессиональный (многоголосый закадровый) ОРТ
Cубтитры: нет
Режиссер: Пол Андерсон / Paul Anderson
В ролях: Робин Шоу, Линден Эшби, Бриджит Уилсон, Кристофер Ламберт, Кэри-Хироюки Тагава, Талиса Сото, Тревор Годдар, Крис Касамасса, Франсуа Пети, Кит Кук
Описание: Несколько столетий назад Шанг Тсунг — маг из потустороннего мира захватил в свои руки древний воинский турнир. Его цель — ввергнуть наш мир в хаос. Чтобы спасти человечество от гибели, троим воинам предстоит битва… смертельная битва с силами мрака.



Качество видео: BDRip-AVC (источник: kingsize87 / Blu-ray / 1080p)
Формат видео: MKV
Видео: 720x400 (16:9), 23.976 fps, 787 kbps avg
Аудио: AC3, 48.0 khz, 2 ch, 192 kbps

Общее
Уникальный идентификатор : 204691540893635640481485938991788035093 (0x99FE2823D8D4A496B73F19EAF1ED8C15)
Полное имя : C:\Users\к\Desktop\фильмы\Mortal Kombat.1995.ОРТ.mkv
Формат : Matroska
Версия формата : Version 4 / Version 2
Размер файла : 725 Мбайт
Продолжительность : 1 ч. 41 м.
Общий поток : 999 Кбит/сек
Дата кодирования : UTC 2014-02-21 13:37:12
Программа кодирования : mkvmerge v6.3.0 ('You can't stop me!') built on Jun 28 2013 20:09:41
Библиотека кодирования : libebml v1.3.0 + libmatroska v1.4.0
Видео
Идентификатор : 1
Формат : AVC
Формат/Информация : Advanced Video Codec
Профиль формата : High@L4.1
Параметр CABAC формата : Да
Параметр ReFrames формата : 16 кадров
Идентификатор кодека : V_MPEG4/ISO/AVC
Продолжительность : 1 ч. 41 м.
Битрейт : 787 Кбит/сек
Ширина : 720 пикселей
Высота : 400 пикселей
Соотношение сторон : 16:9
Режим частоты кадров : Постоянный
Частота кадров : 23,976 кадра/сек
Цветовое пространство : YUV
Субдискретизация насыщенности : 4:2:0
Битовая глубина : 8 бит
Тип развёртки : Прогрессивная
Бит/(Пиксели*Кадры) : 0.114
Размер потока : 571 Мбайт (79%)
Библиотека кодирования : x264 core 130 r2273 b3065e6
Настройки программы : cabac=1 / ref=16 / deblock=1:-1:-1 / analyse=0x3:0x133 / me=umh / subme=9 / psy=1 / psy_rd=1.00:0.10 / mixed_ref=1 / me_range=28 / chroma_me=1 / trellis=2 / 8x8dct=1 / cqm=0 / deadzone=21,11 / fast_pskip=0 / chroma_qp_offset=-3 / threads=3 / lookahead_threads=1 / sliced_threads=0 / nr=0 / decimate=1 / interlaced=0 / bluray_compat=0 / constrained_intra=0 / bframes=3 / b_pyramid=2 / b_adapt=2 / b_bias=0 / direct=3 / weightb=1 / open_gop=0 / weightp=2 / keyint=250 / keyint_min=23 / scenecut=40 / intra_refresh=0 / rc_lookahead=50 / rc=crf / mbtree=1 / crf=21.0 / qcomp=0.60 / qpmin=0 / qpmax=69 / qpstep=4 / ip_ratio=1.40 / aq=1:1.00
Default : Да
Forced : Нет
Аудио
Идентификатор : 2
Формат : AC-3
Формат/Информация : Audio Coding 3
Расширение режима : CM (complete main)
Параметр Endianness формата : Big
Идентификатор кодека : A_AC3
Продолжительность : 1 ч. 41 м.
Вид битрейта : Постоянный
Битрейт : 192 Кбит/сек
Каналы : 2 канала
Расположение каналов : Front: L R
Частота : 48,0 КГц
Битовая глубина : 16 бит
Метод сжатия : С потерями
Размер потока : 139 Мбайт (19%)
Заголовок : Селен по заказу ОРТ (VHS)
Язык : Russian
Default : Да
Forced : Нет



Скачать Смертельная.Битва.Mortal.Kombat.(Пол.Андерсон).[1995.фэнтази.приключения.фантастика.боевик.триллер.BDRip-AVC].[MVO.(ОРТ)].torrent без регистрации
Золото ЗОЛОТАЯ РАЗДАЧА! СКАЧАННОЕ НЕ ЗАСЧИТЫВАЕТСЯ! Золото
Дата: Зарегистрирован   [ Тип: внутренний ] Как тут cкачать?
MAGNET ссылка
MAGNET ссылка


Скачать .torrent

15 KB

Статус: проверено DHT
Скачан: торрент - 184 раз, раздача полностью - 17 раз
Размер: 725 MB
Оценка:  - (Голосов: 0)
Поблагодарили: 2
Поделиться ссылкой на эту раздачу с друзьями:
В контактеFacebookОдноклассникиTwitterLivejournalМой МирLiveinternet
 

 
Показать сообщения:    


Вы не можете начинать темы
Вы не можете отвечать на сообщения
Вы не можете редактировать свои сообщения
Вы не можете удалять свои сообщения
Вы не можете голосовать в опросах
Вы не можете прикреплять файлы к сообщениям
Вы можете скачивать файлы