Loading...
Error

Скачать Криминальный роман / Romanzo criminale (Микеле Плачидо) [2005, драма, криминал, история, DVDRip] [DVO] + [Sub (Rus)] + [Original (Ita)] торрент без регистрации

 
Статистика раздачи
Размер:  2,9 GB   |    Скачан:  123 раза
Сидов:  1  [  0 KB/s  ]  
 
Автор Сообщение

Marsianka

[] 

Криминальный роман
Romanzo criminale


Страна: Италия, Франция, Великобритания
Жанр: драма, криминал, история
Год выпуска: 2005
Продолжительность: 02:26:41

Перевод: Любительский (двухголосый)
Cубтитры: Русские
Оригинальная аудиодорожка: итальянский


Режиссер:
Микеле Плачидо / Michele Placido
В ролях:
Ким Росси Стюарт (Il Freddo), Анна Муглалис (Patrizia /Cinzia), Пьерфранческо Фавино (Libano),Клаудио Сантамария (Il Dandi), Стефано Аккорси (Commissario Scialoja), Риккардо Скамарчио (Il Nero), Жазмин Тринка (Roberta), Тони Берторелли (La Voce), Луиджи Анжелилло (Zio Carlo), Антонелло Фассари (Ciro Buffoni), Элио Джермано (Il Sorcio), Франко Интерленги (Barone Rosellini)

Описание:
Италия, неспокойные 70-е годы. Трое отчаянных парней - Ливанец, Лёд и Денди - клянутся поставить Рим на колени, став теми, о ком говорят со страхом и почтением. Дерзкие похищения, заказные убийства и наркоторговля - мрачное ремесло криминального трио, которому суждено создать самую опасную банду в стране.




Качество видео:
Формат видео: AVI
Видео: 672x384 (1.75:1), 25 fps, XviD MPEG-4 ~1924 kbps avg, 0.30 bit/pixel
Аудио 1: 48 kHz, AC3 Dolby Digital, 3/2 (L,C,R,l,r) + LFE ch, ~448 kbps Russian[/font]
Аудио 2: 48 kHz, AC3 Dolby Digital, 3/2 (L,C,R,l,r) + LFE ch, ~448 kbps Italiano
[align=center]
General
Complete name : F:\Рипы\Kriminalny.roman.2005.DVDRip\Kriminalny.roman.2005.DVDRip.avi
Format : AVI
Format/Info : Audio Video Interleave
Format profile : OpenDML
File size : 2.90 GiB
Duration : 2h 26mn
Overall bit rate : 2 827 Kbps
Writing application : VirtualDubModRus 1.5.10.2 (build 2542/release)
Writing library : VirtualDubMod build 2542/release
Video
ID : 0
Format : MPEG-4 Visual
Format profile : Advanced Simple@L5
Format settings, BVOP : 1
Format settings, QPel : No
Format settings, GMC : No warppoints
Format settings, Matrix : Custom
Codec ID : XVID
Codec ID/Hint : XviD
Duration : 2h 26mn
Bit rate : 1 915 Kbps
Width : 672 pixels
Height : 384 pixels
Display aspect ratio : 16:9
Frame rate : 25.000 fps
Color space : YUV
Chroma subsampling : 4:2:0
Bit depth : 8 bits
Scan type : Progressive
Compression mode : Lossy
Bits/(Pixel*Frame) : 0.297
Stream size : 1.96 GiB (68%)
Writing library : XviD 73
Audio #1
ID : 1
Format : AC-3
Format/Info : Audio Coding 3
Mode extension : CM (complete main)
Codec ID : 2000
Duration : 2h 26mn
Bit rate mode : Constant
Bit rate : 448 Kbps
Channel(s) : 6 channels
Channel positions : Front: L C R, Side: L R, LFE
Sampling rate : 48.0 KHz
Bit depth : 16 bits
Compression mode : Lossy
Stream size : 470 MiB (16%)
Alignment : Split accross interleaves
Interleave, duration : 40 ms (1.00 video frame)
Interleave, preload duration : 500 ms
Audio #2
ID : 2
Format : AC-3
Format/Info : Audio Coding 3
Mode extension : CM (complete main)
Codec ID : 2000
Duration : 2h 26mn
Bit rate mode : Constant
Bit rate : 448 Kbps
Channel(s) : 6 channels
Channel positions : Front: L C R, Side: L R, LFE
Sampling rate : 48.0 KHz
Bit depth : 16 bits
Compression mode : Lossy
Stream size : 470 MiB (16%)
Alignment : Split accross interleaves
Interleave, duration : 40 ms (1.00 video frame)
Interleave, preload duration : 500 ms



Скачать Криминальный.роман.Romanzo.criminale.(Микеле.Плачидо).[2005.драма.криминал.история.DVDRip].[DVO].+.[Sub.(Rus)].+.[Original.(Ita)].torrent без регистрации
Золото ЗОЛОТАЯ РАЗДАЧА! СКАЧАННОЕ НЕ ЗАСЧИТЫВАЕТСЯ! Золото
Дата: Зарегистрирован   [ Тип: внутренний ] Как тут cкачать?
MAGNET ссылка
MAGNET ссылка


Скачать .torrent

15 KB

Статус: проверено DHT
Скачан: торрент - 123 раз, раздача полностью - 22 раз
Размер: 2,9 GB
Оценка:  - (Голосов: 0)
Поблагодарили: 0
Поделиться ссылкой на эту раздачу с друзьями:
В контактеFacebookОдноклассникиTwitterLivejournalМой МирLiveinternet
 

 
Показать сообщения:    


Вы не можете начинать темы
Вы не можете отвечать на сообщения
Вы не можете редактировать свои сообщения
Вы не можете удалять свои сообщения
Вы не можете голосовать в опросах
Вы не можете прикреплять файлы к сообщениям
Вы можете скачивать файлы