Loading...
Error

Скачать Сокол и Снеговик / Агенты Сокол и Снеговик / The Falcon And The Snowman (Джон Шлезингер) [1985, триллер, драма, криминал, боевик, DVDRip] [MVO (ОРТ)] + [Original (Eng)] торрент без регистрации

 
Статистика раздачи
Размер:  1,47 GB   |    Скачан:  106 раз
Сидов:  1  [  0 KB/s  ]  
 
Автор Сообщение

Marsianka

[] 

Сокол и Снеговик / Агенты Сокол и Снеговик / The Falcon And The Snowman
Страна: Великобритания, США
Жанр: триллер, драма, криминал, боевик
Год выпуска: 1985
Продолжительность: 02:11:28
Перевод: Профессиональный (многоголосый закадровый) ОРТ
Cубтитры: нет
Оригинальная аудиодорожка: английский
Режиссер: Джон Шлезингер / John Schlesinger
В ролях: Тимоти Хаттон, Шон Пенн, Дэвид Суше, Пэт Хингл, Джойс Ван Паттен, Роб Рид, Роб Ньюэлл, Карен Уэст, Арт Камачо, Энни Козач
Описание: В основу сюжета легла реальная история, произошедшая в США в 70-е годы, в самый разгар «холодной войны». Молодой государственный служащий Кристофер Бойс имеет доступ к сверхсекретным документам. То, что он узнает, полностью меняет его отношение к своей стране.
От слепого патриотизма не остается и следа. Вместе со своим приятелем Долтоном он решает продавать военные секреты Советскому Союзу. Поначалу их шпионская деятельность больше похожа на комедию, но это не может продолжаться долго. Последствия оказываются драматическими.



Качество видео: DVDRip
Формат видео: AVI
Видео: XviD, 704x384 (1,85:1), 23.976 fps, 1203 kbps avg

Сэмпл
1 - 48 khz, AC3 Dolby Digital, 2/0 (L,R) ch, ~192 kbps [ОРТ] VHSRip
2 - 48 khz, AC3 Dolby Digital, 6/0 (L,R) ch, ~448 kbps [Английский]
Общее
Полное имя : E:\Альберт\Downloads\Сокол и Снеговик MVO ОРТ + Original Eng.avi
Формат : AVI
Формат/Информация : Audio Video Interleave
Размер файла : 1,47 Гбайт
Продолжительность : 2 ч. 11 м.
Общий поток : 1601 Кбит/сек
Программа кодирования : VirtualDubMod 1.5.10.2 (build 2540/release)
Библиотека кодирования : VirtualDubMod build 2540/release
Видео
Идентификатор : 0
Формат : MPEG-4 Visual
Профиль формата : Advanced Simple@L5
Параметр BVOP формата : 1
Параметр QPel формата : Нет
Параметр GMC формата : Без точки перехода
Параметр матрицы формата : Выборочная
Идентификатор кодека : XVID
Идентификатор кодека/Подсказка : XviD
Продолжительность : 2 ч. 11 м.
Битрейт : 1203 Кбит/сек
Ширина : 704 пикселя
Высота : 384 пикселя
Соотношение сторон : 1,85:1
Частота кадров : 23,976 кадра/сек
Цветовое пространство : YUV
Субдискретизация насыщенности : 4:2:0
Битовая глубина : 8 бит
Тип развёртки : Прогрессивная
Метод сжатия : С потерями
Бит/(Пиксели*Кадры) : 0.186
Размер потока : 1,10 Гбайт (75%)
Библиотека кодирования : XviD 1.2.0.dev47 (UTC 2006-11-01)
Аудио #1
Идентификатор : 1
Формат : AC-3
Формат/Информация : Audio Coding 3
Расширение режима : CM (complete main)
Параметр Endianness формата : Big
Идентификатор кодека : 2000
Продолжительность : 2 ч. 11 м.
Вид битрейта : Постоянный
Битрейт : 192 Кбит/сек
Каналы : 2 канала
Расположение каналов : Front: L R
Частота : 48,0 КГц
Битовая глубина : 16 бит
Метод сжатия : С потерями
Размер потока : 180 Мбайт (12%)
Выравнивание : Разделение по промежуткам
Продолжительность промежутка : 42 мс. (1,00 видеокадр)
Время предзагрузки промежутка : 500 мс.
Аудио #2
Идентификатор : 2
Формат : AC-3
Формат/Информация : Audio Coding 3
Профиль формата : Dolby Digital
Расширение режима : CM (complete main)
Параметр Endianness формата : Big
Идентификатор кодека : 2000
Продолжительность : 2 ч. 11 м.
Вид битрейта : Постоянный
Битрейт : 192 Кбит/сек
Каналы : 2 канала
Расположение каналов : Front: L R
Частота : 48,0 КГц
Битовая глубина : 16 бит
Метод сжатия : С потерями
Задержка видео : 15 мс.
Размер потока : 180 Мбайт (12%)
Выравнивание : Разделение по промежуткам
Продолжительность промежутка : 42 мс. (1,00 видеокадр)
Время предзагрузки промежутка : 500 мс.



Скачать Сокол.и.Снеговик.Агенты.Сокол.и.Снеговик.The.Falcon.And.The.Snowman.(Джон.Шлезингер).[1985.триллер.драма.криминал.боевик.DVDRip].[MVO.(ОРТ)].+.[Original.(Eng)].torrent без регистрации
Золото ЗОЛОТАЯ РАЗДАЧА! СКАЧАННОЕ НЕ ЗАСЧИТЫВАЕТСЯ! Золото
Дата: Зарегистрирован   [ Тип: внутренний ] Как тут cкачать?
MAGNET ссылка
MAGNET ссылка


Скачать .torrent

15 KB

Статус: проверено DHT
Скачан: торрент - 106 раз, раздача полностью - 1 раз
Размер: 1,47 GB
Оценка:  5 (Голосов: 1)
Поблагодарили: 1
Поделиться ссылкой на эту раздачу с друзьями:
В контактеFacebookОдноклассникиTwitterLivejournalМой МирLiveinternet
 

 
Показать сообщения:    


Вы не можете начинать темы
Вы не можете отвечать на сообщения
Вы не можете редактировать свои сообщения
Вы не можете удалять свои сообщения
Вы не можете голосовать в опросах
Вы не можете прикреплять файлы к сообщениям
Вы можете скачивать файлы