Loading...
Error

Скачать Чужие среди нас / Они живут / They Live (Джон Карпентер) [1988, ужасы, фантастика, боевик, триллер, BDRip] [AVO (Живов)] + [AVO (Горчаков)] торрент без регистрации

 
Статистика раздачи
Размер:  1,75 GB   |    Скачан:  122 раза
Сидов:  1  [  0 KB/s  ]  
 
Автор Сообщение

Marsianka

[] 

Чужие среди нас / Они живут / They Live
Страна: США
Жанр: ужасы, фантастика, боевик, триллер
Год выпуска: 1988
Продолжительность: 01:34:20
Перевод: Авторский (одноголосый закадровый) Живов
Перевод 2: Авторский (одноголосый закадровый) Горчаков
Cубтитры: нет
Режиссер: Джон Карпентер / John Carpenter
В ролях: Родди Пайпер, Кит Дэвид, Мег Фостер, Джордж «Бак» Флауэр, Питер Джейсон, Рэймонд Сейнт-Жак, Джейсон Робардс III, Джон Лоуренс, Сьюзэн Барнс, Сай Ричардсон
Описание: Однажды простой рабочий-строитель Нейда, которому не очень везёт в жизни, находит необычные солнечные очки. Надев их, он получает возможность увидеть мир таким, какой он есть.
Реальность пугает! Оказывается, правительство и средства массовой информации бомбардируют людей скрытыми сообщениями, воздействующими на уровне подсознания: «Спите!», «Не давайте волю воображению», «Подчиняйтесь властям».
А что еще страшнее, Нейда увидел истинное обличье многих политиков и важных членов общества! Они и не люди вовсе, а безобразные и злые инопланетяне с планеты Андромеда. Их миссия на Земле - проводить массовую кампанию по подчинению землян своей воле и держать людей в неведении...
Нейда должен найти людей, которые, как и он, знают об истинном положении вещей (кто еще мог изготовить эти чудесные очки?), и присоединиться к их движению сопротивления, чтобы бороться!



Качество видео:
Формат видео: AVI
Видео: 720x320 (2.25:1), 24 fps, XviD build 57 ~1811 kbps avg, 0.33 bit/pixel
Размер: 1487.53 Mb (1/3 DVD-R)
Аудио: 48 kHz, AC3 Dolby Digital, 3/2 (L,C,R,l,r) + LFE ch, ~384 kbps
Аудио 2: 48 kHz, AC3 Dolby Digital, 3/2 (L,C,R,l,r) + LFE ch, ~448 kbps Avo (Горчаков) - отдельно
Общее
Полное имя : C:\Users\к\Desktop\фильмы\кино\Chuzhie.sredi.nas.1988.RUS.BDRip.XviD.AC3\Chuzhie.sredi.nas.1988.RUS.BDRip.XviD.AC3.avi
Формат : AVI
Формат/Информация : Audio Video Interleave
Размер файла : 1,45 Гбайт
Продолжительность : 1 ч. 34 м.
Общий поток : 2205 Кбит/сек
Название фильма : Chuzhie.sredi.nas.1988.RUS.BDRip.XviD.AC3.
Режиссёр : Orbit
Программа кодирования : VirtualDubMod 1.5.10.2 (build 2542/release)
Библиотека кодирования : VirtualDub build 35390/release
Примечание : 23.02.2011
Видео
Идентификатор : 0
Формат : MPEG-4 Visual
Профиль формата : Advanced Simple@L5
Параметр BVOP формата : 1
Параметр QPel формата : Нет
Параметр GMC формата : Без точки перехода
Параметр матрицы формата : Выборочная
Идентификатор кодека : XVID
Идентификатор кодека/Подсказка : XviD
Продолжительность : 1 ч. 34 м.
Битрейт : 1811 Кбит/сек
Ширина : 720 пикселей
Высота : 320 пикселей
Соотношение сторон : 2,25:1
Частота кадров : 24,000 кадра/сек
Цветовое пространство : YUV
Субдискретизация насыщенности : 4:2:0
Битовая глубина : 8 бит
Тип развёртки : Прогрессивная
Метод сжатия : С потерями
Бит/(Пиксели*Кадры) : 0.328
Размер потока : 1,19 Гбайт (82%)
Библиотека кодирования : XviD 57
Аудио
Идентификатор : 1
Формат : AC-3
Формат/Информация : Audio Coding 3
Расширение режима : CM (complete main)
Параметр Endianness формата : Big
Идентификатор кодека : 2000
Продолжительность : 1 ч. 34 м.
Вид битрейта : Постоянный
Битрейт : 384 Кбит/сек
Каналы : 6 каналов
Расположение каналов : Front: L C R, Side: L R, LFE
Частота : 48,0 КГц
Битовая глубина : 16 бит
Метод сжатия : С потерями
Размер потока : 259 Мбайт (17%)
Выравнивание : Соединение по промежуткам
Продолжительность промежутка : 42 мс. (1,00 видеокадр)
Время предзагрузки промежутка : 512 мс.



Скачать Чужие.среди.нас.Они.живут.They.Live.(Джон.Карпентер).[1988.ужасы.фантастика.боевик.триллер.BDRip].[AVO.(Живов)].+.[AVO.(Горчаков)].torrent без регистрации
Золото ЗОЛОТАЯ РАЗДАЧА! СКАЧАННОЕ НЕ ЗАСЧИТЫВАЕТСЯ! Золото
Дата: Зарегистрирован   [ Тип: внутренний ] Как тут cкачать?
MAGNET ссылка
MAGNET ссылка


Скачать .torrent

18 KB

Статус: проверено DHT
Скачан: торрент - 122 раз, раздача полностью - 41 раз
Размер: 1,75 GB
Оценка:  - (Голосов: 0)
Поблагодарили: 0
Поделиться ссылкой на эту раздачу с друзьями:
В контактеFacebookОдноклассникиTwitterLivejournalМой МирLiveinternet
 

 
Показать сообщения:    


Вы не можете начинать темы
Вы не можете отвечать на сообщения
Вы не можете редактировать свои сообщения
Вы не можете удалять свои сообщения
Вы не можете голосовать в опросах
Вы не можете прикреплять файлы к сообщениям
Вы можете скачивать файлы