Loading...
Error

Скачать Кровавый судья / Ночь кровавого монстра / The Bloody Judge / Il trono di fuoco (Хесус Франко) [1970, исторический, драма, ужасы, DVDRip] [VO (Oneinchnales)] торрент без регистрации

 
Статистика раздачи
Размер:  1,31 GB   |    Скачан:  121 раз
Сидов:  1  [  0 KB/s  ]  
 
Автор Сообщение

Marsianka

[] 

Кровавый судья / Ночь кровавого монстра

The Bloody Judge (aka Il trono di fuoco)

Страна: Лихтенштейн, Италия, Испания, Германия (ФРГ)
Жанр: исторический, драма, ужасы
Год выпуска: 1970
Продолжительность: 01:42:39
Перевод: sharky

Редакция и озвучание: Одноголосый закадровый Oneinchnales
Cубтитры: нет
Режиссер: Хесус Франко (Jesus Franco)
В ролях:
Кристофер Ли (Судья Джеффрис), Мария Шелл (Мать Роза),
Лео Генн (Лорд Уэссекс), Ганс Хэсс мл. (Гарри Селтон),
Мария Ром (Мэри Грей), Маргарет Ли (Алисия Грей)
и другие
Описание: Англия, конец 17 века... В стране идёт борьба за королевский трон между королём Яковом Вторым и принцем Вильгельмом Оранским. Верховный судья лорд Джеффрис при помощи своего особого, витиеватого правосудия безжалостно расправляется с мятежниками, а их жён и подруг объявляет ведьмами и без колебаний казнит. В водоворот исторических событий попадают влюблённые Мэри и Гарри, сестра казнённой за колдовство и сын лорда, сочувствующего повстанцам...
Oneinchnales)

Внимание: фильм содержит сцены эротического содержания.



Качество: DVDRip
Формат: AVI
Видео: 720x304 (2.35 : 1), 23.976 fps, XVID, 1627 kbps avg, 0.310 bit/pixel
Аудио: 48 kHz, AC-3, 2 ch, CBR 192.00 kbps (русский VO Oneinchnales[/align]



17+Когда Гарри встретил... Мэри:
Когда Гарри встретил Мэри, времена в Англии были смутные. Он — сын лорда Эссекса, примкнувший к повстанцам. Она — сестра казненной «ведьмы». Не последнюю роль в их судьбе сыграл королевский судья лорд Джеффрис, жестоко каравший еретиков и повстанцев.

взято отсюда
«Огненный Трон» (или «Кровавый судья — в англоязычном прокате) Джесс Франко снимал еще в те годы, когда думал, что у него могут получаться «нормальные» фильмы. По крайней мере, ему удавалось убеждать в этом продюсеров, чтобы получить для своей работы вполне вменяемый бюджет. А это позволяло снять исторический фильм, не слишком экономя на костюмах, батальных сценах и декорациях… Разве что на парикмахерах — смотреть на героев и героинь картины, щеголяющих прическами в стиле конца 60-х годов XX-го века в одеждах века XVII-го довольно забавно. Ну, да вспомните хотя бы столь популярный сериал про Анжелику — на куафферах в те годы, похоже, экономили повсеместно.
А в остальном в кадре все вполне соответствет столь популярным в те годы фильмам «плаща и шпаги»: благородный герой, борящийся с несправедливостью уйдя в повстанческий отряд; красивая и отважная героиня, чье сердце пылает жаждой мести за неправедно осужденную сестру; слепая провидица, чьи прорицания указывают путь героям; наконец, неправедный и жестокий судья и его доверенный слуга и палач, готовые на любые подлости… И все это на фоне разгорающейся борьбы за престол между последним католическим королем Англии Яковом II и призванным мятежниками Вильгельмом Оранским, в которой, между прочим, реальный судья Джеффрис оставил немалый след. Само собой, будет в фильме и «любовь до гроба», и гнусные домогательства злодея, в классическом исполнении Кристофера Ли, и погони, и сражения, и мужество благородных героев, терпящих страшные пытки, и заслуженная расплата, и т. д., и т. п. Ну, разве что поединков на шпагах, давших, собственно, жанру название зритель увидит немного, а те, что есть смешно называть фехтованием. Ну, да сеньор Франко в боевых сценах никогда особо силен не был, предпочитая скорее обозначать их, нежели показывать. Вместо них лучше лишнюю пару эпизодов с пытками полуобнаженных красавиц вставить — это куда эротичней…
Авторский почерк Хесуса Франко, всю свою жизнь воспевавшего и продолжающего воспевать порок во всех его проявлениях, в «Il Trono di Fuoco», конечно, заметен. Но здесь он завуалирован довольно приличным бюджетом и задачей снять фильм для массового зрителя. К тому же сексуальная революция еще только начиналась, и слишком уж больших вольностей в кадре продюсеры бы вряд ли потерпели. В результате получился довольно типичный для того времени псевдоисторический фильм, который в равной степени смогут смотреть как поклонники своеобразного таланта Франко, так и любители историко-приключенческого кино. Первые, кстати, охотно заносят «Огненный Трон» в список особых удач режиссера, но положа руку на сердце, мне это не кажется столь уж верным. В конце концов, для жанрового фильма «Il Trono di Fuoco» не выглядит безапелляционным шедевром, скорее крепким середняком. Но поскольку Франко большинство привыкло видеть своеобразным «маэстро» трэша, то его попытка сыграть на поле «мэйнстрима» уже сама по себе воспринимается чуть ли не как откровение. Впрочем, это если оглядывать взглядом все творчество режиссера. Но, в конце концов, это ведь не является обязательным. Можно и просто кино посмотреть.
General
Complete name : Krovavy`i.sud`ia.(1970).DVDRip.XviD.AC3.Rus_Oneinchnales.avi
Format : AVI
Format/Info : Audio Video Interleave
File size : 1.31 GiB
Duration : 1h 42mn
Overall bit rate : 1 828 Kbps
Movie name : The Bloody Judge (1970)
Director : Jesus Franco
Writing application : VirtualDubMod 1.5.10.2 (build 2540/release)
Writing library : VirtualDubMod build 2540/release
Copyright : Prodimex Film, Terra-Filmkunst
Comment : Release by Hurtom.com (10.10.2013)
Video
ID : 0
Format : MPEG-4 Visual
Format profile : Advanced Simple@L5
Format settings, BVOP : 2
Format settings, QPel : No
Format settings, GMC : No warppoints
Format settings, Matrix : Custom
Codec ID : XVID
Codec ID/Hint : XviD
Duration : 1h 42mn
Bit rate : 1 627 Kbps
Width : 720 pixels
Height : 304 pixels
Display aspect ratio : 2.35:1
Frame rate : 23.976 fps
Color space : YUV
Chroma subsampling : 4:2:0
Bit depth : 8 bits
Scan type : Progressive
Compression mode : Lossy
Bits/(Pixel*Frame) : 0.310
Stream size : 1.17 GiB (89%)
Writing library : XviD 1.2.1 (UTC 2008-12-04)
Audio
ID : 1
Format : AC-3
Format/Info : Audio Coding 3
Mode extension : CM (complete main)
Format settings, Endianness : Big
Codec ID : 2000
Duration : 1h 42mn
Bit rate mode : Constant
Bit rate : 192 Kbps
Channel(s) : 2 channels
Channel positions : Front: L R
Sampling rate : 48.0 KHz
Bit depth : 16 bits
Compression mode : Lossy
Stream size : 141 MiB (11%)
Alignment : Split accross interleaves
Interleave, duration : 42 ms (1.00 video frame)
Interleave, preload duration : 500 ms



Скачать Кровавый.судья.Ночь.кровавого.монстра.The.Bloody.Judge.Il.trono.di.fuoco.(Хесус.Франко).[1970.исторический.драма.ужасы.DVDRip].[VO.(Oneinchnales)].torrent без регистрации
Золото ЗОЛОТАЯ РАЗДАЧА! СКАЧАННОЕ НЕ ЗАСЧИТЫВАЕТСЯ! Золото
Дата: Зарегистрирован   [ Тип: внутренний ] Как тут cкачать?
MAGNET ссылка
MAGNET ссылка


Скачать .torrent

27 KB

Статус: проверено DHT
Скачан: торрент - 121 раз, раздача полностью - 11 раз
Размер: 1,31 GB
Оценка:  - (Голосов: 0)
Поблагодарили: 0
Поделиться ссылкой на эту раздачу с друзьями:
В контактеFacebookОдноклассникиTwitterLivejournalМой МирLiveinternet
 

 
Показать сообщения:    


Вы не можете начинать темы
Вы не можете отвечать на сообщения
Вы не можете редактировать свои сообщения
Вы не можете удалять свои сообщения
Вы не можете голосовать в опросах
Вы не можете прикреплять файлы к сообщениям
Вы можете скачивать файлы