Loading...
Error

Скачать Лунная ловушка / Ловушка на Луне / Moontrap (Роберт Дайк) [1989, фантастика, ужасы, HDRip] [AVO (С. Кузнецов)] торрент без регистрации

 
Статистика раздачи
Размер:  1,46 GB   |    Скачан:  117 раз

Полного источника не было: 25 минут

 
Автор Сообщение

Marsianka

[] 

Лунная ловушка / Ловушка на Луне / Moontrap
«For fourteen thousand years... It waited»

Страна: США
Жанр: Фантастика, ужасы
Год выпуска: 1989
Продолжительность: 01:30:11
Перевод: Авторский (одноголосый закадровый) [Сергей Кузнецов]
Cубтитры: нет
Режиссер: Роберт Дайк / Robert Dyke
В ролях: Уолтер Кениг, Брюс Кэмпбелл, Ли Ломбарди, Джон Дж. Саундерс, Ривис Грэхэм, Том Кейс, Джуди Левитт, Даг Чайлдз
Описание: Парочка астронавтов НАСА в своём очередном полёте обнаруживает космический корабль неземного происхождения, курсирующего по орбите между нашей планетой и Луной. Внутри него они находят иссохший труп человекообразного существа и яйцеообразное металлическое устройство.
Sample | IMDB | КиноПоиск
Тип релиза: HDRip [исх. Moontrap.1989.1080p.BluRay.x264-VETO [PublicHD]]
Формат видео: AVI
Видео: 720x400 (1.80:1), 24.000 fps, XviD build 50, 2183 kbps avg, 0.32 bit/pixel
Аудио: 48 kHz, MPEG Layer 3, 2 ch, 128.00 kbps avg [Russian_AVO]
General
Complete name : D:\Мои релизы\Moontrap_HDRip_RG_All_Films.avi
Format : AVI
Format/Info : Audio Video Interleave
File size : 1.46 GiB
Duration : 1h 30mn
Overall bit rate : 2 321 Kbps
Writing application : VirtualDubMod 1.5.10.3 | www.virtualdub-fr.org || (build 2550/release)
Writing library : VirtualDubMod build 2550/release
Video
ID : 0
Format : MPEG-4 Visual
Format profile : Advanced Simple@L5
Format settings, BVOP : Yes
Format settings, QPel : No
Format settings, GMC : No warppoints
Format settings, Matrix : Custom
Codec ID : XVID
Codec ID/Hint : XviD
Duration : 1h 30mn
Bit rate : 2 183 Kbps
Width : 720 pixels
Height : 400 pixels
Display aspect ratio : 16:9
Frame rate : 24.000 fps
Color space : YUV
Chroma subsampling : 4:2:0
Bit depth : 8 bits
Scan type : Progressive
Compression mode : Lossy
Bits/(Pixel*Frame) : 0.316
Stream size : 1.38 GiB (94%)
Writing library : XviD 1.2.1 (UTC 2008-12-04)
Audio
ID : 1
Format : MPEG Audio
Format version : Version 1
Format profile : Layer 3
Mode : Joint stereo
Codec ID : 55
Codec ID/Hint : MP3
Duration : 1h 30mn
Bit rate mode : Constant
Bit rate : 128 Kbps
Channel(s) : 2 channels
Sampling rate : 48.0 KHz
Compression mode : Lossy
Stream size : 82.5 MiB (6%)
Alignment : Aligned on interleaves
Interleave, duration : 42 ms (1.00 video frame)
Interleave, preload duration : 504 ms



Скачать Лунная.ловушка.Ловушка.на.Луне.Moontrap.(Роберт.Дайк).[1989.фантастика.ужасы.HDRip].[AVO.(С.Кузнецов)].torrent без регистрации
Золото ЗОЛОТАЯ РАЗДАЧА! СКАЧАННОЕ НЕ ЗАСЧИТЫВАЕТСЯ! Золото
Дата: Зарегистрирован   [ Тип: внутренний ] Как тут cкачать?
MAGNET ссылка
MAGNET ссылка


Скачать .torrent

15 KB

Статус: проверено DHT
Скачан: торрент - 117 раз, раздача полностью - 26 раз
Размер: 1,46 GB
Оценка:  - (Голосов: 0)
Поблагодарили: 1
Поделиться ссылкой на эту раздачу с друзьями:
В контактеFacebookОдноклассникиTwitterLivejournalМой МирLiveinternet
 

 
Показать сообщения:    


Вы не можете начинать темы
Вы не можете отвечать на сообщения
Вы не можете редактировать свои сообщения
Вы не можете удалять свои сообщения
Вы не можете голосовать в опросах
Вы не можете прикреплять файлы к сообщениям
Вы можете скачивать файлы