Loading...
Error

Скачать Любовь и аэробика / Heavenly Bodies (Лоуренс Дейн) [1984, мелодрама, музыкальный фильм, DVDRip-AVC] [VO (Andi)] + [Sub (Rus)] + [Original (Eng)] торрент без регистрации

 
Статистика раздачи
Размер:  1,7 GB   |    Скачан:  148 раз
Сидов:  1  [  0 KB/s  ]  
 
Автор Сообщение

Marsianka

[] 

Любовь и аэробика / Heavenly Bodies
Страна: США
Жанр: Мелодрама, Музыкальный фильм
Год выпуска: 1984
Продолжительность: 01:25:00
Перевод: Одноголосый закадровый Andi
Cубтитры: русские (спасибо karimoff2010)
Оригинальная аудиодорожка: английский
Режиссер: Лоуренс Дейн / Lawrence Dane
В ролях: Синтия Дэйл, Ричард Ребьере, Уолтер Джордж Элтон, Лаура Генри, Стюарт Стоун, Патриция Идлетт, Пэт Генри, Linda Sorenson, Райнер Шварц, Чек Линдер, Мики Мур, Шон Салливан, Mac Bradden, Майкл Тейт, Мюррэй Вестгейт, Elena Kudaba, Sugar Bouche, Эндрю Дуглас, Брайан Фоли, Фэй Фоли
Описание: Три подруги, бросив скучную работу машинисток, открывают свой клуб аэробики (по-современному - финтес-центр) "Божественные тела". Главную героиню берут ведущей на местное телевидение. Но у клуба появляются конкуренты...



Качество видео: DVDRip-AVC
Формат видео: MKV
Видео: 720*540, 2397 Кбит/сек, 25,000 кадров/сек

Сэмпл
Аудио: AC3, 192 Кбит/сек, 2Ch, 48,0 КГц-русский
Аудио 2: AC3, 192 Кбит/сек, 2Ch, 48,0 КГц-English
Общее
Уникальный идентификатор : 216629784683619319523602699975224815453 (0xA2F96100B192B8A2880D2A8FCF156F5D)
Полное имя : L:\Heavenly Bodies (VO Andi).mkv
Формат : Matroska
Версия формата : Version 2
Размер файла : 1,70 Гбайт
Продолжительность : 1 ч. 25 м.
Общий поток : 2838 Кбит/сек
Название фильма : Heavenly Bodies
Дата кодирования : UTC 2014-05-12 17:27:59
Программа кодирования : mkvmerge v5.5.0 ('Healer') built on Apr 6 2012 21:43:24
Библиотека кодирования : libebml v1.2.3 + libmatroska v1.3.0
Видео
Идентификатор : 1
Формат : AVC
Формат/Информация : Advanced Video Codec
Профиль формата : High@L4.1
Параметр CABAC формата : Да
Параметр ReFrames формата : 2 кадра
Идентификатор кодека : V_MPEG4/ISO/AVC
Продолжительность : 1 ч. 25 м.
Битрейт : 2397 Кбит/сек
Ширина : 720 пикселей
Высота : 540 пикселей
Соотношение сторон : 4:3
Режим частоты кадров : Постоянный
Частота кадров : 25,000 кадров/сек
Цветовое пространство : YUV
Субдискретизация насыщенности : 4:2:0
Битовая глубина : 8 бит
Тип развёртки : Прогрессивная
Бит/(Пиксели*Кадры) : 0.247
Размер потока : 1,43 Гбайт (84%)
Библиотека кодирования : x264 core
Default : Да
Forced : Нет
Основные цвета : BT.601 NTSC
Характеристики трансфера : BT.709
Коэффициенты матрицы : BT.601
Аудио #1
Идентификатор : 2
Формат : AC-3
Формат/Информация : Audio Coding 3
Расширение режима : CM (complete main)
Параметр Endianness формата : Big
Идентификатор кодека : A_AC3
Продолжительность : 1 ч. 25 м.
Вид битрейта : Постоянный
Битрейт : 192 Кбит/сек
Каналы : 2 канала
Расположение каналов : Front: L R
Частота : 48,0 КГц
Битовая глубина : 16 бит
Метод сжатия : С потерями
Размер потока : 117 Мбайт (7%)
Язык : Russian
Default : Да
Forced : Нет
Аудио #2
Идентификатор : 3
Формат : AC-3
Формат/Информация : Audio Coding 3
Расширение режима : CM (complete main)
Параметр Endianness формата : Big
Идентификатор кодека : A_AC3
Продолжительность : 1 ч. 25 м.
Вид битрейта : Постоянный
Битрейт : 192 Кбит/сек
Каналы : 2 канала
Расположение каналов : Front: L R
Частота : 48,0 КГц
Битовая глубина : 16 бит
Метод сжатия : С потерями
Размер потока : 117 Мбайт (7%)
Заголовок : English
Язык : English
Default : Нет
Forced : Нет
Текст
Идентификатор : 4
Формат : UTF-8
Идентификатор кодека : S_TEXT/UTF8
Идентификатор кодека/Информация : UTF-8 Plain Text
Язык : Russian
Default : Да
Forced : Нет



Скачать Любовь.и.аэробика.Heavenly.Bodies.(Лоуренс.Дейн).[1984.мелодрама.музыкальный.фильм.DVDRip-AVC].[VO.(Andi)].+.[Sub.(Rus)].+.[Original.(Eng)].torrent без регистрации
Золото ЗОЛОТАЯ РАЗДАЧА! СКАЧАННОЕ НЕ ЗАСЧИТЫВАЕТСЯ! Золото
Дата: Зарегистрирован   [ Тип: внутренний ] Как тут cкачать?
MAGNET ссылка
MAGNET ссылка


Скачать .torrent

18 KB

Статус: проверено DHT
Скачан: торрент - 148 раз, раздача полностью - 7 раз
Размер: 1,7 GB
Оценка:  - (Голосов: 0)
Поблагодарили: 2
Поделиться ссылкой на эту раздачу с друзьями:
В контактеFacebookОдноклассникиTwitterLivejournalМой МирLiveinternet
 

 
Показать сообщения:    


Вы не можете начинать темы
Вы не можете отвечать на сообщения
Вы не можете редактировать свои сообщения
Вы не можете удалять свои сообщения
Вы не можете голосовать в опросах
Вы не можете прикреплять файлы к сообщениям
Вы можете скачивать файлы