Loading...
Error

Скачать Красотка / Pretty Woman (Гэрри Маршалл) [1990, мелодрама, HDRip] [DVO (ОРТ)] торрент без регистрации

 
Статистика раздачи
Размер:  1,46 GB   |    Скачан:  192 раза
Сидов:  1  [  0 KB/s  ]  
 
Автор Сообщение

Marsianka

[] 

Красотка / Pretty Woman
Страна: США
Жанр: мелодрама
Год выпуска: 1990
Продолжительность: 01:59:37
Перевод: Профессиональный (двухголосый, закадровый) ОРТ
Cубтитры: нет
Режиссер: Гэрри Маршалл / Garry Marshall
В ролях: Джулия Робертс, Ричард Гир, Ральф Беллами, Джейсон Александр, Лора Сан Джакомо, Алекс Хайд-Вайт, Эми Ясбек, Элинор Донахью, Эктор Элисондо, Джудит Болдуин
Описание: Финансовый магнат Эдвард Льюис, проезжая по ночному городу, останавливается около красивой женщины. Ее зовут Вивьен и она берет только наличными. Наутро он понимает, что не хочет расставаться с ней и предлагает девушке остаться в его номере в отеле еще на некоторое время — за дополнительный гонорар. Вивьен оказывается в море блеска и лжи. Она терпит небрежное отношение к ней ради понравившегося мужчины, который перестал быть для нее просто клиентом.


Качество видео: HDRip
Формат видео: AVI
Видео: 704x384 (1.83:1), 23.976 fps, XviD, ~1544 kbps avg, 0.22 bit/pixel
Аудио: 48.0 KHz, AC3, 2 channels (L, R) ~ 192 kbps
За видео благодарим lankano, за дорожку ОРТ - серый75, за синхронизацию дороги - JUSTKANT
General
Complete name : D:\Красотка (ОРТ).avi
Format : AVI
Format/Info : Audio Video Interleave
File size : 1.46 GiB
Duration : 1h 59mn
Overall bit rate : 1 745 Kbps
Writing application : VirtualDubMod 1.5.10.2 (build 2540/release)
Writing library : VirtualDubMod build 2540/release
Video
ID : 0
Format : MPEG-4 Visual
Format profile : Advanced Simple@L5
Format settings, BVOP : 2
Format settings, QPel : No
Format settings, GMC : No warppoints
Format settings, Matrix : Custom
Codec ID : XVID
Codec ID/Hint : XviD
Duration : 1h 59mn
Bit rate : 1 544 Kbps
Width : 704 pixels
Height : 384 pixels
Display aspect ratio : 16:9
Frame rate : 23.976 fps
Color space : YUV
Chroma subsampling : 4:2:0
Bit depth : 8 bits
Scan type : Progressive
Compression mode : Lossy
Bits/(Pixel*Frame) : 0.238
Stream size : 1.29 GiB (88%)
Writing library : XviD 1.2.0.dev47 (UTC 2006-11-01)
Audio
ID : 1
Format : AC-3
Format/Info : Audio Coding 3
Mode extension : CM (complete main)
Codec ID : 2000
Duration : 1h 59mn
Bit rate mode : Constant
Bit rate : 192 Kbps
Channel(s) : 2 channels
Channel positions : Front: L R
Sampling rate : 48.0 KHz
Bit depth : 16 bits
Compression mode : Lossy
Stream size : 164 MiB (11%)
Alignment : Split accross interleaves
Interleave, duration : 42 ms (1.00 video frame)
Interleave, preload duration : 500 ms



Скачать Красотка.Pretty.Woman.(Гэрри.Маршалл).[1990.мелодрама.HDRip].[DVO.(ОРТ)].torrent без регистрации
Золото ЗОЛОТАЯ РАЗДАЧА! СКАЧАННОЕ НЕ ЗАСЧИТЫВАЕТСЯ! Золото
Дата: Зарегистрирован   [ Тип: внутренний ] Как тут cкачать?
MAGNET ссылка
MAGNET ссылка


Скачать .torrent

15 KB

Статус: проверено DHT
Скачан: торрент - 192 раз, раздача полностью - 105 раз
Размер: 1,46 GB
Оценка:  5 (Голосов: 2)
Поблагодарили: 4
Поделиться ссылкой на эту раздачу с друзьями:
В контактеFacebookОдноклассникиTwitterLivejournalМой МирLiveinternet
 

 
Показать сообщения:    


Вы не можете начинать темы
Вы не можете отвечать на сообщения
Вы не можете редактировать свои сообщения
Вы не можете удалять свои сообщения
Вы не можете голосовать в опросах
Вы не можете прикреплять файлы к сообщениям
Вы можете скачивать файлы