Loading...
Error

Скачать Путешествие с курицей по реке / Flußfahrt mit Huhn (Аренд Агте) [1984, семейный, DVDRip] [VO (Юрий Муравский)] + [Original (Ger)] торрент без регистрации

 
Статистика раздачи
Размер:  1,5 GB   |    Скачан:  105 раз
Сидов:  1  [  0 KB/s  ]  
 
Автор Сообщение

Marsianka

[] 

Путешествие с курицей по реке / Flußfahrt mit Huhn
Страна: Германия (ФРГ)
Жанр: семейный
Год выпуска: 1984
Продолжительность: 01:38:08
Перевод: Одноголосый закадровый (Юрий Муравский)
Cубтитры: нет
Оригинальная аудиодорожка: немецкий
Режиссер: Аренд Агте / Arend Agthe
В ролях: Джулия Мартинек / Julia Martinek, Дэвид Хопп / David Hoppe, Федор Хопп / Fedor Hoppe, Уве Мюллер / Uwe Müller, Ханс Беерхенке / Hans Beerhenke, Барбара Станек / Barbara Stanek, Андреас Маннкопфф / Andreas Mannkopff, Йокель Лист / Jockel List, Райнер Фридрихсен / Rainer Friedrichsen, Хильдегард Венш / Hildegard Wensch
Описание: Маленькая Йоханна приехала на каникулы к дедушке и своему двоюродному брату Роберту. Девочке кажется, что Роберт ведет себя странно, пока он не посвящает ее в свой план. На дедушкиной лодке он собирается н разведать тайный выход к морю. Йоханна, Роберт, Харальд и его младший братишка Алекс отплывают в полночь. На борту оказывается еще один путешественник - дедушкина коричневая курица тоже отправляется в плавание по Везеру. (arbat-moskino)



Качество видео: DVDRip
Формат видео: AVI
Видео: DivX 5, 720x528 (4:3), 25.000 fps, 1796 kbps, 0.189 bits/pixel
Аудио: AC3, 48000 Hz, 2 ch, 192 kbps (русский)
Аудио 2: AC3, 48000 Hz, 2 ch, 192 kbps (немецкий)

Сэмпл
General
Complete name : C:\Users\1\Desktop\012345\Муравский\Flußfahrt mit Huhn.avi
Format : AVI
Format/Info : Audio Video Interleave
File size : 1.50 GiB
Duration : 1h 38mn
Overall bit rate : 2 194 Kbps
Writing application : VirtualDubMod 1.5.10.2 (build 2540/release)
Writing library : VirtualDubMod build 2540/release
Video
ID : 0
Format : MPEG-4 Visual
Format profile : Advanced Simple@L5
Format settings, BVOP : 2
Format settings, QPel : No
Format settings, GMC : No warppoints
Format settings, Matrix : Default (MPEG)
Codec ID : DX50
Codec ID/Hint : DivX 5
Duration : 1h 38mn
Bit rate : 1 796 Kbps
Width : 720 pixels
Height : 528 pixels
Display aspect ratio : 4:3
Frame rate : 25.000 fps
Color space : YUV
Chroma subsampling : 4:2:0
Bit depth : 8 bits
Scan type : Progressive
Compression mode : Lossy
Bits/(Pixel*Frame) : 0.189
Stream size : 1.23 GiB (82%)
Writing library : XviD 1.2.1 (UTC 2008-12-04)
Audio #1
ID : 1
Format : AC-3
Format/Info : Audio Coding 3
Mode extension : CM (complete main)
Codec ID : 2000
Duration : 1h 38mn
Bit rate mode : Constant
Bit rate : 192 Kbps
Channel(s) : 2 channels
Channel positions : Front: L R
Sampling rate : 48.0 KHz
Bit depth : 16 bits
Compression mode : Lossy
Stream size : 135 MiB (9%)
Alignment : Split accross interleaves
Interleave, duration : 40 ms (1.00 video frame)
Interleave, preload duration : 500 ms
Audio #2
ID : 2
Format : AC-3
Format/Info : Audio Coding 3
Mode extension : CM (complete main)
Codec ID : 2000
Duration : 1h 38mn
Bit rate mode : Constant
Bit rate : 192 Kbps
Channel(s) : 2 channels
Channel positions : Front: L R
Sampling rate : 48.0 KHz
Bit depth : 16 bits
Compression mode : Lossy
Stream size : 135 MiB (9%)
Alignment : Split accross interleaves
Interleave, duration : 40 ms (1.00 video frame)
Interleave, preload duration : 500 ms



Скачать Путешествие.с.курицей.по.реке.Flußfahrt.mit.Huhn.(Аренд.Агте).[1984.семейный.DVDRip].[VO.(Юрий.Муравский)].+.[Original.(Ger)].torrent без регистрации
Золото ЗОЛОТАЯ РАЗДАЧА! СКАЧАННОЕ НЕ ЗАСЧИТЫВАЕТСЯ! Золото
Дата: Зарегистрирован   [ Тип: внутренний ] Как тут cкачать?
MAGNET ссылка
MAGNET ссылка


Скачать .torrent

16 KB

Статус: проверено DHT
Скачан: торрент - 105 раз, раздача полностью - 7 раз
Размер: 1,5 GB
Оценка:  - (Голосов: 0)
Поблагодарили: 1
Поделиться ссылкой на эту раздачу с друзьями:
В контактеFacebookОдноклассникиTwitterLivejournalМой МирLiveinternet
 

 
Показать сообщения:    


Вы не можете начинать темы
Вы не можете отвечать на сообщения
Вы не можете редактировать свои сообщения
Вы не можете удалять свои сообщения
Вы не можете голосовать в опросах
Вы не можете прикреплять файлы к сообщениям
Вы можете скачивать файлы