Loading...
Error

Скачать Дом спящих красавиц / Das Haus der schlafenden Schönen / Das Haus der schlafenden Schonen / House of the Sleeping Beauties (Вадим Гловна) [2006, драма, триллер, DVDRip] [MVO (Омикрон)] торрент без регистрации

 
Статистика раздачи
Размер:  1,45 GB   |    Скачан:  120 раз
Сидов:  1  [  0 KB/s  ]  
 
Автор Сообщение

Marsianka

[] 

Дом спящих красавиц

Das Haus der schlafenden Schönen / House of the Sleeping Beauties
Страна: Германия
Жанр: драма, триллер
Год выпуска: 2005
Продолжительность: 01:38:59
Перевод: Профессиональный (многоголосый закадровый) - студия "Омикрон"
Режиссер: Вадим Гловна / Vadim Glowna
В ролях: Вадим Гловна, Ангела Винклер, Максимилиан Шелл, Бироль Юнель, Мона Гласс, Марина Вайс-Бургаслиева, Мария Бергхардт, Линда Эльснер, Максим Фоэрст, Жаклин Ле Сонье, Бабет Мэдер, Беньямин Зидель, Рэймонд Тарабэй

Описание: Эдмон, богатый предприниматель конца 60-х, полностью отчаялся. В автокатастрофе 15 лет назад он убил свою жену и дочь и находится в сильной депрессии. Единственная отрада в его мрачном существовании — это таинственный дом, своего рода бордель, специализированный для пожилых клиентов. Там они могут переночевать с красивыми молодыми женщинами.


СЕМПЛ
Качество видео: DVDRip (исходник - , спасибо за него rulle1, Нордер)
Формат видео: AVI
Видео: XviD, 704x304 (2.32:1), 25 fps, 1645 kbps avg, 0.31 bit/pixel
Аудио: AC3 Dolby Digital, 48 kHz, 448 kbps, 3/2 (L,C,R,l,r) + LFE ch

Код:

Общее
Полное имя                               : F:\RT\Dom.Spyashchikh.Krasavits.2006.XviD.DVDRip.RusMVO.avi
Формат                                   : AVI
Формат/Информация                        : Audio Video Interleave
Размер файла                             : 1,45 Гбайт
Продолжительность                        : 1 ч. 38 м.
Общий поток                              : 2104 Кбит/сек
Название фильма                          : Dom.Spyashchikh.Krasavits.2006.XviD.DVDRip.RusMVO
Режиссёр                                 : rip by Inch
Жанр                                     : Drama / Thriller
Программа кодирования                    : VirtualDubMod 1.5.10.3 | www.virtualdub-fr.org || (build 2550/release)
Формат оригинала/Имя                     : Das Haus der schlafenden Schone
Правообладатель                          : rutracker.org
Примечание                               : rusMVO [Омикрон]
Видео
Идентификатор                            : 0
Формат                                   : MPEG-4 Visual
Профиль формата                          : Advanced Simple@L5
Параметр BVOP формата                    : 2
Параметр QPel формата                    : Нет
Параметр GMC формата                     : Без точки перехода
Параметр матрицы формата                 : Выборочная
Идентификатор кодека                     : XVID
Идентификатор кодека/Подсказка           : XviD
Продолжительность                        : 1 ч. 38 м.
Битрейт                                  : 1646 Кбит/сек
Ширина                                   : 704 пикселя
Высота                                   : 304 пикселя
Соотношение сторон                       : 2,35:1
Частота кадров                           : 25,000 кадров/сек
Цветовое пространство                    : YUV
Субдискретизация насыщенности            : 4:2:0
Битовая глубина                          : 8 бит
Тип развёртки                            : Прогрессивная
Метод сжатия                             : С потерями
Бит/(Пиксели*Кадры)                      : 0.308
Размер потока                            : 1,14 Гбайт (78%)
Библиотека кодирования                   : XviD 73
Аудио
Идентификатор                            : 1
Формат                                   : AC-3
Формат/Информация                        : Audio Coding 3
Расширение режима                        : CM (complete main)
Параметр Endianness формата              : Big
Идентификатор кодека                     : 2000
Продолжительность                        : 1 ч. 38 м.
Вид битрейта                             : Постоянный
Битрейт                                  : 448 Кбит/сек
Каналы                                   : 6 каналов
Расположение каналов                     : Front: L C R, Side: L R, LFE
Частота                                  : 48,0 КГц
Битовая глубина                          : 16 бит
Метод сжатия                             : С потерями
Размер потока                            : 317 Мбайт (21%)
Выравнивание                             : Разделение по промежуткам
Продолжительность промежутка             : 40  мс. (1,00 видеокадр)
Время предзагрузки промежутка            : 500  мс.



Скачать Дом.спящих.красавиц.Das.Haus.der.schlafenden.Schönen.Das.Haus.der.schlafenden.Schonen.House.of.the.Sleeping.Beauties.(Вадим.Гловна).[2006.драма.триллер.DVDRip].[MVO.(Омикрон)].torrent без регистрации
Золото ЗОЛОТАЯ РАЗДАЧА! СКАЧАННОЕ НЕ ЗАСЧИТЫВАЕТСЯ! Золото
Дата: Зарегистрирован   [ Тип: внутренний ] Как тут cкачать?
MAGNET ссылка
MAGNET ссылка


Скачать .torrent

15 KB

Статус: проверено DHT
Скачан: торрент - 120 раз, раздача полностью - 1 раз
Размер: 1,45 GB
Оценка:  - (Голосов: 0)
Поблагодарили: 0
Поделиться ссылкой на эту раздачу с друзьями:
В контактеFacebookОдноклассникиTwitterLivejournalМой МирLiveinternet
 

 
Показать сообщения:    


Вы не можете начинать темы
Вы не можете отвечать на сообщения
Вы не можете редактировать свои сообщения
Вы не можете удалять свои сообщения
Вы не можете голосовать в опросах
Вы не можете прикреплять файлы к сообщениям
Вы можете скачивать файлы