Loading...
Error

Скачать Гол! / Goal! / Goal! The Dream Begins (Дэнни Кэннон) [2005, спорт, мелодрама, BDRip] [Dub] + [Sub (Rus)] торрент без регистрации

 
Автор Сообщение

Marsianka

[] 

Гол! / Goal! / Goal! The Dream Begins
«Все начинается с мечты»

Страна: США, Великобритания
Жанр: Спорт, мелодрама
Год выпуска: 2005
Продолжительность: 01:58:07
Перевод: Профессиональный (полное дублирование)
Cубтитры: русские на испанскую речь [внешние, srt]
Режиссер: Дэнни Кэннон / Danny Cannon
В ролях: Куно Беккер, Алессандро Нивола, Марсель Юреш, Стивен Диллэйн, Анна Фрил, Киран О'Брайен, Шон Пертви, Кассандра Белл, Грег Эллис, Питер Рник, Фрэнсис Барбер, Гэри Льюис, Тони Плана, Дэвид Бекхэм, Зинедин Зидан, Патрик Клюйверт, Рауль, Алан Ширер
Описание: Как и миллионы детей по всему свету, Сантьяго мечтает стать профессиональным футболистом. Он живет в Лос-Анджелесе и все это для него лишь мечта. Однако в один прекрасный день, по невероятному стечению обстоятельств, у него появляется шанс быть отобранным в "Ньюкасл", клуб английской премьер-лиги.
Sample | IMDB | КиноПоиск
Тип релиза: BDRip [исх. спасибо ]
Формат видео: AVI
Видео: 704x288 (2.44:1), 23.976 fps, XviD build 50, 1385 kbps avg, 0.29 bit/pixel
Аудио: 48 kHz, AC3 Dolby Digital, 3/2 (L,C,R,l,r) + LFE ch, 384.00 kbps avg [Russian_Dub]

http://screenshotcomparison.com/comparison/67416/picture:0
+ субтитры на испанскую речь
Перевод одинаковый
http://screenshotcomparison.com/comparison/67419/picture:0
Перевод одинаковый
General
Complete name : D:\Мои релизы\Goal_BDRip_RG_All_Films\Goal_BDRip_RG_All_Films.avi
Format : AVI
Format/Info : Audio Video Interleave
File size : 1.47 GiB
Duration : 1h 58mn
Overall bit rate : 1 779 Kbps
Writing application : VirtualDubMod 1.5.10.3 | www.virtualdub-fr.org || (build 2550/release)
Writing library : VirtualDubMod build 2550/release
Video
ID : 0
Format : MPEG-4 Visual
Format profile : Advanced Simple@L5
Format settings, BVOP : Yes
Format settings, QPel : No
Format settings, GMC : No warppoints
Format settings, Matrix : Custom
Codec ID : XVID
Codec ID/Hint : XviD
Duration : 1h 58mn
Bit rate : 1 386 Kbps
Width : 704 pixels
Height : 288 pixels
Display aspect ratio : 2.40:1
Frame rate : 23.976 fps
Color space : YUV
Chroma subsampling : 4:2:0
Bit depth : 8 bits
Scan type : Progressive
Compression mode : Lossy
Bits/(Pixel*Frame) : 0.285
Stream size : 1.14 GiB (78%)
Writing library : XviD 1.2.1 (UTC 2008-12-04)
Audio
ID : 1
Format : AC-3
Format/Info : Audio Coding 3
Mode extension : CM (complete main)
Codec ID : 2000
Duration : 1h 58mn
Bit rate mode : Constant
Bit rate : 384 Kbps
Channel(s) : 6 channels
Channel positions : Front: L C R, Side: L R, LFE
Sampling rate : 48.0 KHz
Bit depth : 16 bits
Compression mode : Lossy
Stream size : 324 MiB (22%)
Alignment : Split accross interleaves
Interleave, duration : 42 ms (1.00 video frame)
Interleave, preload duration : 500 ms
Гол!.Goal!.Goal!.The.Dream.Begins.(Дэнни.Кэннон).[2005.спорт.мелодрама.BDRip].[Dub].+.[Sub.(Rus)].torrent
Раздачи: Не зарегистрирован

Скачать .torrent

15 KB

Добавлен:
Скачано: 0 раз
   
 
Показать сообщения:    


Вы не можете начинать темы
Вы не можете отвечать на сообщения
Вы не можете редактировать свои сообщения
Вы не можете удалять свои сообщения
Вы не можете голосовать в опросах
Вы не можете прикреплять файлы к сообщениям
Вы можете скачивать файлы