Loading...
Error

Скачать Армагеддон / Armageddon (Майкл Бэй) [1998, фантастика, боевик, триллер, приключения, BDRip] [Dub (CEE)] торрент без регистрации

 
Статистика раздачи
Размер:  2,18 GB   |    Скачан:  148 раз

Полного источника не было: 22 минуты

 
Автор Сообщение

Marsianka

[] 

Армагеддон / Armageddon
«Во имя любви. Во имя чести. Во имя человечества»

Страна: США / Jerry Bruckheimer Films, Touchstone Pictures, Valhalla Motion Pictures
Жанр: фантастика, боевик, триллер, приключения
Год выпуска: 1998
Продолжительность: 02:30:50
Перевод: Профессиональный (дублированный) лицензия CEE
Cубтитры: нет
Режиссёр: Майкл Бэй / Michael Bay
В ролях: Брюс Уиллис, Бен Аффлек, Лив Тайлер, Уилл Пэттон, Билли Боб Торнтон, Стив Бушеми, Уильям Фихтнер, Оуэн Уилсон, Майкл Кларк Дункан, Петер Стормаре, Кен Хадсон Кэмпбелл, Джессика Стин.
Описание: Тень гигантского астероида легла на Землю. До рокового столкновения остаются считанные дни. Наступает Армагеддон, трагический финал мировой истории. Чтобы предотвратить катастрофу, необходимо чудо — или совместные усилия лучших из лучших вместе с технологической мощью всего созданного человеком. Сможет ли горстка людей противостоять вселенской стихии?..



MPAA: - детям до 13 лет просмотр не желателен
Качество видео: BDRip
Формат видео: AVI
Видео: XviD build 65, 720x304 (2.37:1), 23.976 fps, ~1675 kbps avg, 0.319 bit/pixel
Аудио: 48 kHz, AC3 Dolby Digital, 3/2 (L,C,R,l,r) + LFE ch, ~384 kbps avg (Dub)

Сэмпл
Общее
Полное имя : D:\Armageddon.1998.Dub.BDRip.2,18Gb.XviD.AC3.avi
Формат : AVI
Формат/Информация : Audio Video Interleave
Профиль формата : OpenDML
Размер файла : 2,18 Гбайт
Продолжительность : 2 ч. 30 м.
Общий поток : 2071 Кбит/сек
Название фильма : Armageddon 1998
Режиссёр : Michael Bay
Дата записи : 05.04.2014
Программа кодирования : VirtualDubModRus 1.5.10.2 (build 2542/release)
Библиотека кодирования : VirtualDubMod build 2542/release
Правообладатель : Rutracker.org
Примечание : MooN_WalkeR
Видео
Идентификатор : 0
Формат : MPEG-4 Visual
Профиль формата : Advanced Simple@L5
Параметр BVOP формата : 1
Параметр QPel формата : Нет
Параметр GMC формата : Без точки перехода
Параметр матрицы формата : Выборочная
Идентификатор кодека : XVID
Идентификатор кодека/Подсказка : XviD
Продолжительность : 2 ч. 30 м.
Битрейт : 1675 Кбит/сек
Ширина : 720 пикселей
Высота : 304 пикселя
Соотношение сторон : 2,35:1
Частота кадров : 23,976 кадра/сек
Цветовое пространство : YUV
Субдискретизация насыщенности : 4:2:0
Битовая глубина : 8 бит
Тип развёртки : Прогрессивная
Метод сжатия : С потерями
Бит/(Пиксели*Кадры) : 0.319
Размер потока : 1,76 Гбайт (81%)
Библиотека кодирования : XviD 65
Аудио
Идентификатор : 1
Формат : AC-3
Формат/Информация : Audio Coding 3
Расширение режима : CM (complete main)
Идентификатор кодека : 2000
Продолжительность : 2 ч. 30 м.
Вид битрейта : Постоянный
Битрейт : 384 Кбит/сек
Каналы : 6 каналов
Расположение каналов : Front: L C R, Side: L R, LFE
Частота : 48,0 КГц
Битовая глубина : 16 бит
Метод сжатия : С потерями
Размер потока : 414 Мбайт (19%)
Выравнивание : Разделение по промежуткам
Продолжительность промежутка : 42 мс. (1,00 видеокадр)
Время предзагрузки промежутка : 500 мс.
Заголовок : Dub



Скачать Армагеддон.Armageddon.(Майкл.Бэй).[1998.фантастика.боевик.триллер.приключения.BDRip].[Dub.(CEE)].torrent без регистрации
Золото ЗОЛОТАЯ РАЗДАЧА! СКАЧАННОЕ НЕ ЗАСЧИТЫВАЕТСЯ! Золото
Дата: Зарегистрирован   [ Тип: внутренний ] Как тут cкачать?
MAGNET ссылка
MAGNET ссылка


Скачать .torrent

11 KB

Статус: проверено DHT
Скачан: торрент - 148 раз, раздача полностью - 78 раз
Размер: 2,18 GB
Оценка:  5 (Голосов: 2)
Поблагодарили: 2
Поделиться ссылкой на эту раздачу с друзьями:
В контактеFacebookОдноклассникиTwitterLivejournalМой МирLiveinternet
 

 
Показать сообщения:    


Вы не можете начинать темы
Вы не можете отвечать на сообщения
Вы не можете редактировать свои сообщения
Вы не можете удалять свои сообщения
Вы не можете голосовать в опросах
Вы не можете прикреплять файлы к сообщениям
Вы можете скачивать файлы